999
dxfrw 0.5.11
0
SECTION
2
HEADER
9
$ACADVER
1
AC1021
9
$HANDSEED
5
20000
9
$DWGCODEPAGE
3
ANSI_1252
9
$INSBASE
10
0
20
0
30
0
9
$EXTMIN
10
-3
20
0
30
0
9
$EXTMAX
10
97.1265138631
20
108.6768
30
0
9
$LIMMIN
10
0
20
0
9
$LIMMAX
10
420
20
297
9
$ORTHOMODE
70
0
9
$LTSCALE
40
1
9
$TEXTSTYLE
7
STANDARD
9
$CLAYER
8
dimension_holes
9
$DIMASZ
40
1
9
$DIMLFAC
40
1
9
$DIMSCALE
40
1
9
$DIMEXO
40
2
9
$DIMEXE
40
0.05
9
$DIMTXT
40
2
9
$DIMTSZ
40
0
9
$DIMAUNIT
70
0
9
$DIMADEC
70
2
9
$DIMLUNIT
70
2
9
$DIMSTYLE
2
STANDARD
9
$DIMGAP
40
1
9
$DIMTIH
70
0
9
$LUNITS
70
2
9
$LUPREC
70
4
9
$AUNITS
70
0
9
$AUPREC
70
2
9
$SPLINESEGS
70
8
9
$GRIDMODE
70
1
9
$SNAPSTYLE
70
0
9
$GRIDUNIT
10
0
20
0
9
$PINSBASE
10
1327.46122135
20
0.492125984252
30
0
9
$PLIMMIN
10
0
20
0
9
$PLIMMAX
10
2540
20
2540
9
$INSUNITS
70
1
9
$PSVPSCALE
40
25.5383
0
ENDSEC
0
SECTION
2
CLASSES
0
ENDSEC
0
SECTION
2
TABLES
0
TABLE
2
VPORT
5
8
330
0
100
AcDbSymbolTable
70
1
0
VPORT
5
31
330
2
100
AcDbSymbolTableRecord
100
AcDbViewportTableRecord
2
*ACTIVE
70
0
10
0
20
0
11
1
21
1
12
82.4
22
59.36
13
0
23
0
14
10
24
10
15
10
25
10
16
0
26
0
36
1
17
0
27
0
37
0
40
120.8
41
2.08344370861
42
50
43
0
44
0
50
0
51
0
71
0
72
100
73
1
74
3
75
0
76
1
77
0
78
0
281
0
65
1
110
0
120
0
130
0
111
1
121
0
131
0
112
0
122
1
132
0
79
0
146
0
348
10020
60
7
61
5
292
1
282
1
141
0
142
0
63
250
421
3358443
0
ENDTAB
0
TABLE
2
LTYPE
5
5
330
0
100
AcDbSymbolTable
70
4
0
LTYPE
5
14
330
5
100
AcDbSymbolTableRecord
100
AcDbLinetypeTableRecord
2
ByBlock
70
0
3

72
65
73
0
40
0
0
LTYPE
5
15
330
5
100
AcDbSymbolTableRecord
100
AcDbLinetypeTableRecord
2
ByLayer
70
0
3

72
65
73
0
40
0
0
LTYPE
5
16
330
5
100
AcDbSymbolTableRecord
100
AcDbLinetypeTableRecord
2
Continuous
70
0
3
Solid line
72
65
73
0
40
0
0
LTYPE
5
32
330
5
100
AcDbSymbolTableRecord
100
AcDbLinetypeTableRecord
2
DOT
70
0
3
Dot . . . . . . . . . . . . . . . . . . . . . .
72
65
73
2
40
6.35
49
0
74
0
49
-6.35
74
0
0
LTYPE
5
33
330
5
100
AcDbSymbolTableRecord
100
AcDbLinetypeTableRecord
2
DOT2
70
0
3
Dot (.5x) .....................................
72
65
73
2
40
3.175
49
0
74
0
49
-3.175
74
0
0
LTYPE
5
34
330
5
100
AcDbSymbolTableRecord
100
AcDbLinetypeTableRecord
2
DOTX2
70
0
3
Dot (2x) .  .  .  .  .  .  .  .  .  .  .  .  .
72
65
73
2
40
12.7
49
0
74
0
49
-12.7
74
0
0
LTYPE
5
35
330
5
100
AcDbSymbolTableRecord
100
AcDbLinetypeTableRecord
2
DASHED
70
0
3
Dot . . . . . . . . . . . . . . . . . . . . . .
72
65
73
2
40
19.05
49
12.7
74
0
49
-6.35
74
0
0
LTYPE
5
36
330
5
100
AcDbSymbolTableRecord
100
AcDbLinetypeTableRecord
2
DASHED2
70
0
3
Dashed (.5x) _ _ _ _ _ _ _ _ _ _ _ _ _ _ _ _ _
72
65
73
2
40
9.525
49
6.35
74
0
49
-3.175
74
0
0
LTYPE
5
37
330
5
100
AcDbSymbolTableRecord
100
AcDbLinetypeTableRecord
2
DASHEDX2
70
0
3
Dashed (2x) ____  ____  ____  ____  ____  ___
72
65
73
2
40
38.1
49
25.4
74
0
49
-12.7
74
0
0
LTYPE
5
38
330
5
100
AcDbSymbolTableRecord
100
AcDbLinetypeTableRecord
2
DASHDOT
70
0
3
Dash dot __ . __ . __ . __ . __ . __ . __ . __
72
65
73
4
40
25.4
49
12.7
74
0
49
-6.35
74
0
49
0
74
0
49
-6.35
74
0
0
LTYPE
5
39
330
5
100
AcDbSymbolTableRecord
100
AcDbLinetypeTableRecord
2
DASHDOT2
70
0
3
Dash dot (.5x) _._._._._._._._._._._._._._._.
72
65
73
4
40
12.7
49
6.35
74
0
49
-3.175
74
0
49
0
74
0
49
-3.175
74
0
0
LTYPE
5
3A
330
5
100
AcDbSymbolTableRecord
100
AcDbLinetypeTableRecord
2
DASHDOTX2
70
0
3
Dash dot (2x) ____  .  ____  .  ____  .  ___
72
65
73
4
40
50.8
49
25.4
74
0
49
-12.7
74
0
49
0
74
0
49
-12.7
74
0
0
LTYPE
5
3B
330
5
100
AcDbSymbolTableRecord
100
AcDbLinetypeTableRecord
2
DIVIDE
70
0
3
Divide ____ . . ____ . . ____ . . ____ . . ____
72
65
73
6
40
31.75
49
12.7
74
0
49
-6.35
74
0
49
0
74
0
49
-6.35
74
0
49
0
74
0
49
-6.35
74
0
0
LTYPE
5
3C
330
5
100
AcDbSymbolTableRecord
100
AcDbLinetypeTableRecord
2
DIVIDE2
70
0
3
Divide (.5x) __..__..__..__..__..__..__..__.._
72
65
73
6
40
15.875
49
6.35
74
0
49
-3.175
74
0
49
0
74
0
49
-3.175
74
0
49
0
74
0
49
-3.175
74
0
0
LTYPE
5
3D
330
5
100
AcDbSymbolTableRecord
100
AcDbLinetypeTableRecord
2
DIVIDEX2
70
0
3
Divide (2x) ________  .  .  ________  .  .  _
72
65
73
6
40
63.5
49
25.4
74
0
49
-12.7
74
0
49
0
74
0
49
-12.7
74
0
49
0
74
0
49
-12.7
74
0
0
LTYPE
5
3E
330
5
100
AcDbSymbolTableRecord
100
AcDbLinetypeTableRecord
2
BORDER
70
0
3
Border __ __ . __ __ . __ __ . __ __ . __ __ .
72
65
73
6
40
44.45
49
12.7
74
0
49
-6.35
74
0
49
12.7
74
0
49
-6.35
74
0
49
0
74
0
49
-6.35
74
0
0
LTYPE
5
3F
330
5
100
AcDbSymbolTableRecord
100
AcDbLinetypeTableRecord
2
BORDER2
70
0
3
Border (.5x) __.__.__.__.__.__.__.__.__.__.__.
72
65
73
6
40
22.225
49
6.35
74
0
49
-3.175
74
0
49
6.35
74
0
49
-3.175
74
0
49
0
74
0
49
-3.175
74
0
0
LTYPE
5
40
330
5
100
AcDbSymbolTableRecord
100
AcDbLinetypeTableRecord
2
BORDERX2
70
0
3
Border (2x) ____  ____  .  ____  ____  .  ___
72
65
73
6
40
88.9
49
25.4
74
0
49
-12.7
74
0
49
25.4
74
0
49
-12.7
74
0
49
0
74
0
49
-12.7
74
0
0
LTYPE
5
41
330
5
100
AcDbSymbolTableRecord
100
AcDbLinetypeTableRecord
2
CENTER
70
0
3
Center ____ _ ____ _ ____ _ ____ _ ____ _ ____
72
65
73
4
40
50.8
49
31.75
74
0
49
-6.35
74
0
49
6.35
74
0
49
-6.35
74
0
0
LTYPE
5
42
330
5
100
AcDbSymbolTableRecord
100
AcDbLinetypeTableRecord
2
CENTER2
70
0
3
Center (.5x) ___ _ ___ _ ___ _ ___ _ ___ _ ___
72
65
73
4
40
28.575
49
19.05
74
0
49
-3.175
74
0
49
3.175
74
0
49
-3.175
74
0
0
LTYPE
5
43
330
5
100
AcDbSymbolTableRecord
100
AcDbLinetypeTableRecord
2
CENTERX2
70
0
3
Center (2x) ________  __  ________  __  _____
72
65
73
4
40
101.6
49
63.5
74
0
49
-12.7
74
0
49
12.7
74
0
49
-12.7
74
0
0
ENDTAB
0
TABLE
2
LAYER
5
2
330
0
100
AcDbSymbolTable
70
1
0
LAYER
5
10
330
2
100
AcDbSymbolTableRecord
100
AcDbLayerTableRecord
2
0
70
0
62
7
6
CONTINUOUS
370
0
390
F
0
LAYER
5
44
330
2
100
AcDbSymbolTableRecord
100
AcDbLayerTableRecord
2
dimension
70
1
62
4
6
CONTINUOUS
370
0
390
F
0
LAYER
5
45
330
2
100
AcDbSymbolTableRecord
100
AcDbLayerTableRecord
2
dimension3
70
0
62
4
6
CONTINUOUS
370
0
390
F
0
LAYER
5
46
330
2
100
AcDbSymbolTableRecord
100
AcDbLayerTableRecord
2
dimension_holes
70
1
62
4
6
CONTINUOUS
370
0
390
F
0
LAYER
5
47
330
2
100
AcDbSymbolTableRecord
100
AcDbLayerTableRecord
2
dummy
70
1
62
6
6
CONTINUOUS
370
0
390
F
0
ENDTAB
0
TABLE
2
STYLE
5
3
330
0
100
AcDbSymbolTable
70
3
0
STYLE
5
48
330
2
100
AcDbSymbolTableRecord
100
AcDbTextStyleTableRecord
2
Standard
70
0
40
0
41
1
50
0
71
0
42
1
3
txt
4

0
ENDTAB
0
TABLE
2
VIEW
5
6
330
0
100
AcDbSymbolTable
70
0
0
ENDTAB
0
TABLE
2
UCS
5
7
330
0
100
AcDbSymbolTable
70
0
0
ENDTAB
0
TABLE
2
APPID
5
9
330
0
100
AcDbSymbolTable
70
1
0
APPID
5
12
330
9
100
AcDbSymbolTableRecord
100
AcDbRegAppTableRecord
2
ACAD
70
0
0
ENDTAB
0
TABLE
2
DIMSTYLE
5
A
330
0
100
AcDbSymbolTable
70
1
100
AcDbDimStyleTable
71
1
0
DIMSTYLE
105
49
330
A
100
AcDbSymbolTableRecord
100
AcDbDimStyleTableRecord
2
Standard
70
0
40
1
41
1
42
2
43
0.38
44
0.05
45
0
46
0
47
0
48
0
140
2
141
0.09
142
0
143
25.4
144
1
145
0
146
1
147
1
148
0
71
0
72
0
73
0
74
1
75
0
76
0
77
0
78
0
79
0
170
0
171
2
172
0
173
0
174
0
175
0
176
0
177
0
178
0
179
0
271
4
272
4
273
2
274
2
275
0
276
0
277
2
278
46
279
0
280
0
281
0
282
0
283
1
284
0
285
0
286
0
288
0
289
3
340
Standard
341

371
-2
372
-2
0
ENDTAB
0
TABLE
2
BLOCK_RECORD
5
1
330
0
100
AcDbSymbolTable
70
2
0
BLOCK_RECORD
5
1F
330
1
100
AcDbSymbolTableRecord
100
AcDbBlockTableRecord
2
*Model_Space
70
0
280
1
281
0
0
BLOCK_RECORD
5
1E
330
1
100
AcDbSymbolTableRecord
100
AcDbBlockTableRecord
2
*Paper_Space
70
0
280
1
281
0
0
BLOCK_RECORD
5
4A
330
1
100
AcDbSymbolTableRecord
100
AcDbBlockTableRecord
2
*D16
70
0
280
1
281
0
0
BLOCK_RECORD
5
4D
330
1
100
AcDbSymbolTableRecord
100
AcDbBlockTableRecord
2
*D22
70
0
280
1
281
0
0
BLOCK_RECORD
5
50
330
1
100
AcDbSymbolTableRecord
100
AcDbBlockTableRecord
2
*D7
70
0
280
1
281
0
0
BLOCK_RECORD
5
53
330
1
100
AcDbSymbolTableRecord
100
AcDbBlockTableRecord
2
*D11
70
0
280
1
281
0
0
BLOCK_RECORD
5
56
330
1
100
AcDbSymbolTableRecord
100
AcDbBlockTableRecord
2
*D3
70
0
280
1
281
0
0
BLOCK_RECORD
5
59
330
1
100
AcDbSymbolTableRecord
100
AcDbBlockTableRecord
2
*D19
70
0
280
1
281
0
0
BLOCK_RECORD
5
5C
330
1
100
AcDbSymbolTableRecord
100
AcDbBlockTableRecord
2
*D5
70
0
280
1
281
0
0
BLOCK_RECORD
5
5F
330
1
100
AcDbSymbolTableRecord
100
AcDbBlockTableRecord
2
*D23
70
0
280
1
281
0
0
BLOCK_RECORD
5
62
330
1
100
AcDbSymbolTableRecord
100
AcDbBlockTableRecord
2
*D28
70
0
280
1
281
0
0
BLOCK_RECORD
5
65
330
1
100
AcDbSymbolTableRecord
100
AcDbBlockTableRecord
2
*D26
70
0
280
1
281
0
0
BLOCK_RECORD
5
68
330
1
100
AcDbSymbolTableRecord
100
AcDbBlockTableRecord
2
*D6
70
0
280
1
281
0
0
BLOCK_RECORD
5
6B
330
1
100
AcDbSymbolTableRecord
100
AcDbBlockTableRecord
2
*D21
70
0
280
1
281
0
0
BLOCK_RECORD
5
6E
330
1
100
AcDbSymbolTableRecord
100
AcDbBlockTableRecord
2
*D12
70
0
280
1
281
0
0
BLOCK_RECORD
5
71
330
1
100
AcDbSymbolTableRecord
100
AcDbBlockTableRecord
2
*D14
70
0
280
1
281
0
0
BLOCK_RECORD
5
74
330
1
100
AcDbSymbolTableRecord
100
AcDbBlockTableRecord
2
*D32
70
0
280
1
281
0
0
BLOCK_RECORD
5
77
330
1
100
AcDbSymbolTableRecord
100
AcDbBlockTableRecord
2
*D17
70
0
280
1
281
0
0
BLOCK_RECORD
5
7A
330
1
100
AcDbSymbolTableRecord
100
AcDbBlockTableRecord
2
*D1
70
0
280
1
281
0
0
BLOCK_RECORD
5
7D
330
1
100
AcDbSymbolTableRecord
100
AcDbBlockTableRecord
2
*D8
70
0
280
1
281
0
0
BLOCK_RECORD
5
80
330
1
100
AcDbSymbolTableRecord
100
AcDbBlockTableRecord
2
*D36
70
0
280
1
281
0
0
BLOCK_RECORD
5
83
330
1
100
AcDbSymbolTableRecord
100
AcDbBlockTableRecord
2
*D10
70
0
280
1
281
0
0
BLOCK_RECORD
5
86
330
1
100
AcDbSymbolTableRecord
100
AcDbBlockTableRecord
2
*D2
70
0
280
1
281
0
0
BLOCK_RECORD
5
89
330
1
100
AcDbSymbolTableRecord
100
AcDbBlockTableRecord
2
*D24
70
0
280
1
281
0
0
BLOCK_RECORD
5
8C
330
1
100
AcDbSymbolTableRecord
100
AcDbBlockTableRecord
2
*D27
70
0
280
1
281
0
0
BLOCK_RECORD
5
8F
330
1
100
AcDbSymbolTableRecord
100
AcDbBlockTableRecord
2
*D15
70
0
280
1
281
0
0
BLOCK_RECORD
5
92
330
1
100
AcDbSymbolTableRecord
100
AcDbBlockTableRecord
2
*D13
70
0
280
1
281
0
0
BLOCK_RECORD
5
95
330
1
100
AcDbSymbolTableRecord
100
AcDbBlockTableRecord
2
*D31
70
0
280
1
281
0
0
BLOCK_RECORD
5
98
330
1
100
AcDbSymbolTableRecord
100
AcDbBlockTableRecord
2
*D33
70
0
280
1
281
0
0
BLOCK_RECORD
5
9B
330
1
100
AcDbSymbolTableRecord
100
AcDbBlockTableRecord
2
*D25
70
0
280
1
281
0
0
BLOCK_RECORD
5
9E
330
1
100
AcDbSymbolTableRecord
100
AcDbBlockTableRecord
2
*D9
70
0
280
1
281
0
0
BLOCK_RECORD
5
A1
330
1
100
AcDbSymbolTableRecord
100
AcDbBlockTableRecord
2
*D29
70
0
280
1
281
0
0
BLOCK_RECORD
5
A4
330
1
100
AcDbSymbolTableRecord
100
AcDbBlockTableRecord
2
*D34
70
0
280
1
281
0
0
BLOCK_RECORD
5
A7
330
1
100
AcDbSymbolTableRecord
100
AcDbBlockTableRecord
2
*D4
70
0
280
1
281
0
0
BLOCK_RECORD
5
AA
330
1
100
AcDbSymbolTableRecord
100
AcDbBlockTableRecord
2
*D35
70
0
280
1
281
0
0
BLOCK_RECORD
5
AD
330
1
100
AcDbSymbolTableRecord
100
AcDbBlockTableRecord
2
*D18
70
0
280
1
281
0
0
BLOCK_RECORD
5
B0
330
1
100
AcDbSymbolTableRecord
100
AcDbBlockTableRecord
2
*D20
70
0
280
1
281
0
0
BLOCK_RECORD
5
B3
330
1
100
AcDbSymbolTableRecord
100
AcDbBlockTableRecord
2
*D37
70
0
280
1
281
0
0
BLOCK_RECORD
5
B6
330
1
100
AcDbSymbolTableRecord
100
AcDbBlockTableRecord
2
*D30
70
0
280
1
281
0
0
ENDTAB
0
ENDSEC
0
SECTION
2
BLOCKS
0
BLOCK
5
20
330
1F
100
AcDbEntity
8
0
100
AcDbBlockBegin
2
*Model_Space
70
0
10
0
20
0
30
0
3
*Model_Space
1

0
ENDBLK
5
21
330
1F
100
AcDbEntity
8
0
100
AcDbBlockEnd
0
BLOCK
5
1C
330
1B
100
AcDbEntity
8
0
100
AcDbBlockBegin
2
*Paper_Space
70
0
10
0
20
0
30
0
3
*Paper_Space
1

0
ENDBLK
5
1D
330
1F
100
AcDbEntity
8
0
100
AcDbBlockEnd
0
BLOCK
5
4B
330
4A
100
AcDbEntity
8
0
100
AcDbBlockBegin
2
*D16
70
1
10
0
20
0
3
*D16
1

0
LINE
5
B9
100
AcDbEntity
8
dimension_holes
6
CONTINUOUS
62
7
370
0
100
AcDbLine
10
-14.2336
20
10
11
-14.2336
21
39.75
0
SOLID
5
BA
100
AcDbEntity
8
dimension_holes
6
CONTINUOUS
62
7
370
0
100
AcDbTrace
10
-14.2336
20
10
30
0
11
-14.4001138631
21
11
31
0
12
-14.0670861369
22
11
32
0
13
-14.0670861369
23
11
33
0
0
SOLID
5
BB
100
AcDbEntity
8
dimension_holes
6
CONTINUOUS
62
7
370
0
100
AcDbTrace
10
-14.2336
20
39.75
30
0
11
-14.0670861369
21
38.75
31
0
12
-14.4001138631
22
38.75
32
0
13
-14.4001138631
23
38.75
33
0
0
MTEXT
5
BC
100
AcDbEntity
8
dimension_holes
6
CONTINUOUS
62
7
370
0
100
AcDbMText
10
-16.2336
20
24.875
30
0
40
2
41
6.22222222222
71
5
72
1
1
29.75
7
standard
210
0
220
0
230
1
50
90
73
2
44
1
0
LINE
5
BD
100
AcDbEntity
8
dimension_holes
6
CONTINUOUS
62
7
370
0
100
AcDbLine
10
8
20
10
11
-14.2836
21
10
0
LINE
5
BE
100
AcDbEntity
8
dimension_holes
6
CONTINUOUS
62
7
370
0
100
AcDbLine
10
9.75
20
39.75
11
-14.2836
21
39.75
0
ENDBLK
5
4C
330
4A
100
AcDbEntity
8
0
100
AcDbBlockEnd
0
BLOCK
5
4E
330
4D
100
AcDbEntity
8
0
100
AcDbBlockBegin
2
*D22
70
1
10
0
20
0
3
*D22
1

0
LINE
5
BF
100
AcDbEntity
8
dimension_holes
6
CONTINUOUS
62
7
370
0
100
AcDbLine
10
-42
20
10
11
-42
21
81.75
0
SOLID
5
C0
100
AcDbEntity
8
dimension_holes
6
CONTINUOUS
62
7
370
0
100
AcDbTrace
10
-42
20
10
30
0
11
-42.1665138631
21
11
31
0
12
-41.8334861369
22
11
32
0
13
-41.8334861369
23
11
33
0
0
SOLID
5
C1
100
AcDbEntity
8
dimension_holes
6
CONTINUOUS
62
7
370
0
100
AcDbTrace
10
-42
20
81.75
30
0
11
-41.8334861369
21
80.75
31
0
12
-42.1665138631
22
80.75
32
0
13
-42.1665138631
23
80.75
33
0
0
MTEXT
5
C2
100
AcDbEntity
8
dimension_holes
6
CONTINUOUS
62
7
370
0
100
AcDbMText
10
-44
20
45.875
30
0
40
2
41
5.77777777778
71
5
72
1
1
71.75
7
standard
210
0
220
0
230
1
50
90
73
2
44
1
0
LINE
5
C3
100
AcDbEntity
8
dimension_holes
6
CONTINUOUS
62
7
370
0
100
AcDbLine
10
8
20
10
11
-42.05
21
10
0
LINE
5
C4
100
AcDbEntity
8
dimension_holes
6
CONTINUOUS
62
7
370
0
100
AcDbLine
10
9.75
20
81.75
11
-42.05
21
81.75
0
ENDBLK
5
4F
330
4D
100
AcDbEntity
8
0
100
AcDbBlockEnd
0
BLOCK
5
51
330
50
100
AcDbEntity
8
0
100
AcDbBlockBegin
2
*D7
70
1
10
0
20
0
3
*D7
1

0
LINE
5
C5
100
AcDbEntity
8
dimension
6
CONTINUOUS
62
7
370
0
100
AcDbLine
10
6.5
20
21.407727616
11
10
21
21.407727616
0
SOLID
5
C6
100
AcDbEntity
8
dimension
6
CONTINUOUS
62
7
370
0
100
AcDbTrace
10
6.5
20
21.407727616
30
0
11
7.5
21
21.5742414791
31
0
12
7.5
22
21.2412137529
32
0
13
7.5
23
21.2412137529
33
0
0
SOLID
5
C7
100
AcDbEntity
8
dimension
6
CONTINUOUS
62
7
370
0
100
AcDbTrace
10
10
20
21.407727616
30
0
11
9
21
21.2412137529
31
0
12
9
22
21.5742414791
32
0
13
9
23
21.5742414791
33
0
0
MTEXT
5
C8
100
AcDbEntity
8
dimension
6
CONTINUOUS
62
7
370
0
100
AcDbMText
10
8.25
20
23.407727616
30
0
40
2
41
3.11111111111
71
5
72
1
1
3.5
7
standard
210
0
220
0
230
1
50
0
73
2
44
1
0
LINE
5
C9
100
AcDbEntity
8
dimension
6
CONTINUOUS
62
7
370
0
100
AcDbLine
10
6.5
20
20.75
11
6.5
21
21.457727616
0
LINE
5
CA
100
AcDbEntity
8
dimension
6
CONTINUOUS
62
7
370
0
100
AcDbLine
10
10
20
20.75
11
10
21
21.457727616
0
ENDBLK
5
52
330
50
100
AcDbEntity
8
0
100
AcDbBlockEnd
0
BLOCK
5
54
330
53
100
AcDbEntity
8
0
100
AcDbBlockBegin
2
*D11
70
1
10
0
20
0
3
*D11
1

0
LINE
5
CB
100
AcDbEntity
8
dimension_holes
6
CONTINUOUS
62
7
370
0
100
AcDbLine
10
26.75
20
91.875191617
11
32.5
21
91.875191617
0
SOLID
5
CC
100
AcDbEntity
8
dimension_holes
6
CONTINUOUS
62
7
370
0
100
AcDbTrace
10
28.75
20
91.875191617
30
0
11
27.75
21
91.7086777539
31
0
12
27.75
22
92.0417054801
32
0
13
27.75
23
92.0417054801
33
0
0
SOLID
5
CD
100
AcDbEntity
8
dimension_holes
6
CONTINUOUS
62
7
370
0
100
AcDbTrace
10
30.5
20
91.875191617
30
0
11
31.5
21
92.0417054801
31
0
12
31.5
22
91.7086777539
32
0
13
31.5
23
91.7086777539
33
0
0
MTEXT
5
CE
100
AcDbEntity
8
dimension_holes
6
CONTINUOUS
62
7
370
0
100
AcDbMText
10
33.6111111111
20
93.875191617
30
0
40
2
41
4.22222222222
71
5
72
1
1
1.75
7
standard
210
0
220
0
230
1
50
0
73
2
44
1
0
LINE
5
CF
100
AcDbEntity
8
dimension_holes
6
CONTINUOUS
62
7
370
0
100
AcDbLine
10
28.75
20
90.25
11
28.75
21
91.925191617
0
LINE
5
D0
100
AcDbEntity
8
dimension_holes
6
CONTINUOUS
62
7
370
0
100
AcDbLine
10
30.5
20
91.25
11
30.5
21
91.925191617
0
ENDBLK
5
55
330
53
100
AcDbEntity
8
0
100
AcDbBlockEnd
0
BLOCK
5
57
330
56
100
AcDbEntity
8
0
100
AcDbBlockBegin
2
*D3
70
1
10
0
20
0
3
*D3
1

0
LINE
5
D1
100
AcDbEntity
8
dimension
6
CONTINUOUS
62
7
370
0
100
AcDbLine
10
13.5
20
90
11
30.5
21
90
0
SOLID
5
D2
100
AcDbEntity
8
dimension
6
CONTINUOUS
62
7
370
0
100
AcDbTrace
10
13.5
20
90
30
0
11
14.5
21
90.1665138631
31
0
12
14.5
22
89.8334861369
32
0
13
14.5
23
89.8334861369
33
0
0
SOLID
5
D3
100
AcDbEntity
8
dimension
6
CONTINUOUS
62
7
370
0
100
AcDbTrace
10
30.5
20
90
30
0
11
29.5
21
89.8334861369
31
0
12
29.5
22
90.1665138631
32
0
13
29.5
23
90.1665138631
33
0
0
MTEXT
5
D4
100
AcDbEntity
8
dimension
6
CONTINUOUS
62
7
370
0
100
AcDbMText
10
22
20
92
30
0
40
2
41
2
71
5
72
1
1
17
7
standard
210
0
220
0
230
1
50
0
73
2
44
1
0
LINE
5
D5
100
AcDbEntity
8
dimension
6
CONTINUOUS
62
7
370
0
100
AcDbLine
10
13.5
20
92
11
13.5
21
90.05
0
LINE
5
D6
100
AcDbEntity
8
dimension
6
CONTINUOUS
62
7
370
0
100
AcDbLine
10
30.5
20
92
11
30.5
21
90.05
0
ENDBLK
5
58
330
56
100
AcDbEntity
8
0
100
AcDbBlockEnd
0
BLOCK
5
5A
330
59
100
AcDbEntity
8
0
100
AcDbBlockBegin
2
*D19
70
1
10
0
20
0
3
*D19
1

0
LINE
5
D7
100
AcDbEntity
8
dimension_holes
6
CONTINUOUS
62
7
370
0
100
AcDbLine
10
-27.6
20
10
11
-27.6
21
60.75
0
SOLID
5
D8
100
AcDbEntity
8
dimension_holes
6
CONTINUOUS
62
7
370
0
100
AcDbTrace
10
-27.6
20
10
30
0
11
-27.7665138631
21
11
31
0
12
-27.4334861369
22
11
32
0
13
-27.4334861369
23
11
33
0
0
SOLID
5
D9
100
AcDbEntity
8
dimension_holes
6
CONTINUOUS
62
7
370
0
100
AcDbTrace
10
-27.6
20
60.75
30
0
11
-27.4334861369
21
59.75
31
0
12
-27.7665138631
22
59.75
32
0
13
-27.7665138631
23
59.75
33
0
0
MTEXT
5
DA
100
AcDbEntity
8
dimension_holes
6
CONTINUOUS
62
7
370
0
100
AcDbMText
10
-29.6
20
35.375
30
0
40
2
41
6.22222222222
71
5
72
1
1
50.75
7
standard
210
0
220
0
230
1
50
90
73
2
44
1
0
LINE
5
DB
100
AcDbEntity
8
dimension_holes
6
CONTINUOUS
62
7
370
0
100
AcDbLine
10
8
20
10
11
-27.65
21
10
0
LINE
5
DC
100
AcDbEntity
8
dimension_holes
6
CONTINUOUS
62
7
370
0
100
AcDbLine
10
9.75
20
60.75
11
-27.65
21
60.75
0
ENDBLK
5
5B
330
59
100
AcDbEntity
8
0
100
AcDbBlockEnd
0
BLOCK
5
5D
330
5C
100
AcDbEntity
8
0
100
AcDbBlockBegin
2
*D5
70
1
10
0
20
0
3
*D5
1

0
LINE
5
DD
100
AcDbEntity
8
dimension
6
CONTINUOUS
62
7
370
0
100
AcDbLine
10
24.64
20
46.75
11
24.64
21
39.75
0
SOLID
5
DE
100
AcDbEntity
8
dimension
6
CONTINUOUS
62
7
370
0
100
AcDbTrace
10
24.64
20
46.75
30
0
11
24.8065138631
21
45.75
31
0
12
24.4734861369
22
45.75
32
0
13
24.4734861369
23
45.75
33
0
0
SOLID
5
DF
100
AcDbEntity
8
dimension
6
CONTINUOUS
62
7
370
0
100
AcDbTrace
10
24.64
20
39.75
30
0
11
24.4734861369
21
40.75
31
0
12
24.8065138631
22
40.75
32
0
13
24.8065138631
23
40.75
33
0
0
MTEXT
5
E0
100
AcDbEntity
8
dimension
6
CONTINUOUS
62
7
370
0
100
AcDbMText
10
22.64
20
43.25
30
0
40
2
41
0.888888888889
71
5
72
1
1
7
7
standard
210
0
220
0
230
1
50
90
73
2
44
1
0
LINE
5
E1
100
AcDbEntity
8
dimension
6
CONTINUOUS
62
7
370
0
100
AcDbLine
10
13.75
20
46.75
11
24.69
21
46.75
0
LINE
5
E2
100
AcDbEntity
8
dimension
6
CONTINUOUS
62
7
370
0
100
AcDbLine
10
13.75
20
39.75
11
24.69
21
39.75
0
ENDBLK
5
5E
330
5C
100
AcDbEntity
8
0
100
AcDbBlockEnd
0
BLOCK
5
60
330
5F
100
AcDbEntity
8
0
100
AcDbBlockBegin
2
*D23
70
1
10
0
20
0
3
*D23
1

0
LINE
5
E3
100
AcDbEntity
8
dimension
6
CONTINUOUS
62
7
370
0
100
AcDbLine
10
-1.52957053766e-15
20
10
11
3.5527136788e-15
21
93
0
SOLID
5
E4
100
AcDbEntity
8
dimension
6
CONTINUOUS
62
7
370
0
100
AcDbTrace
10
-1.52957053766e-15
20
10
30
0
11
-0.166513863109
21
11
31
0
12
0.166513863109
22
11
32
0
13
0.166513863109
23
11
33
0
0
SOLID
5
E5
100
AcDbEntity
8
dimension
6
CONTINUOUS
62
7
370
0
100
AcDbTrace
10
3.5527136788e-15
20
93
30
0
11
0.166513863109
21
92
31
0
12
-0.166513863109
22
92
32
0
13
-0.166513863109
23
92
33
0
0
MTEXT
5
E6
100
AcDbEntity
8
dimension
6
CONTINUOUS
62
7
370
0
100
AcDbMText
10
-2
20
51.5
30
0
40
2
41
2.44444444444
71
5
72
1
1
83
7
standard
210
0
220
0
230
1
50
90
73
2
44
1
0
LINE
5
E7
100
AcDbEntity
8
dimension
6
CONTINUOUS
62
7
370
0
100
AcDbLine
10
8
20
10
11
-0.05
21
10
0
LINE
5
E8
100
AcDbEntity
8
dimension
6
CONTINUOUS
62
7
370
0
100
AcDbLine
10
8.7499994283
20
93
11
-0.05
21
93
0
ENDBLK
5
61
330
5F
100
AcDbEntity
8
0
100
AcDbBlockEnd
0
BLOCK
5
63
330
62
100
AcDbEntity
8
0
100
AcDbBlockBegin
2
*D28
70
1
10
0
20
0
3
*D28
1

0
LINE
5
E9
100
AcDbEntity
8
dimension
6
CONTINUOUS
62
7
370
0
100
AcDbLine
10
70
20
96.64
11
85.5502525317
21
96.64
0
SOLID
5
EA
100
AcDbEntity
8
dimension
6
CONTINUOUS
62
7
370
0
100
AcDbTrace
10
70
20
96.64
30
0
11
71
21
96.8065138631
31
0
12
71
22
96.4734861369
32
0
13
71
23
96.4734861369
33
0
0
SOLID
5
EB
100
AcDbEntity
8
dimension
6
CONTINUOUS
62
7
370
0
100
AcDbTrace
10
85.5502525317
20
96.64
30
0
11
84.5502525317
21
96.4734861369
31
0
12
84.5502525317
22
96.8065138631
32
0
13
84.5502525317
23
96.8065138631
33
0
0
MTEXT
5
EC
100
AcDbEntity
8
dimension
6
CONTINUOUS
62
7
370
0
100
AcDbMText
10
77.7751262658
20
98.64
30
0
40
2
41
8.88888888889
71
5
72
1
1
15.5503
7
standard
210
0
220
0
230
1
50
0
73
2
44
1
0
LINE
5
ED
100
AcDbEntity
8
dimension
6
CONTINUOUS
62
7
370
0
100
AcDbLine
10
70
20
92
11
70
21
96.69
0
LINE
5
EE
100
AcDbEntity
8
dimension
6
CONTINUOUS
62
7
370
0
100
AcDbLine
10
85.5502525317
20
92
11
85.5502525317
21
96.69
0
ENDBLK
5
64
330
62
100
AcDbEntity
8
0
100
AcDbBlockEnd
0
BLOCK
5
66
330
65
100
AcDbEntity
8
0
100
AcDbBlockBegin
2
*D26
70
1
10
0
20
0
3
*D26
1

0
LINE
5
EF
100
AcDbEntity
8
dimension3
6
CONTINUOUS
62
7
370
0
100
AcDbLine
10
-2.097152
20
74.4497474683
11
-2.097152
21
93
0
SOLID
5
F0
100
AcDbEntity
8
dimension3
6
CONTINUOUS
62
7
370
0
100
AcDbTrace
10
-2.097152
20
74.4497474683
30
0
11
-2.26366586311
21
75.4497474683
31
0
12
-1.93063813689
22
75.4497474683
32
0
13
-1.93063813689
23
75.4497474683
33
0
0
SOLID
5
F1
100
AcDbEntity
8
dimension3
6
CONTINUOUS
62
7
370
0
100
AcDbTrace
10
-2.097152
20
93
30
0
11
-1.93063813689
21
92
31
0
12
-2.26366586311
22
92
32
0
13
-2.26366586311
23
92
33
0
0
MTEXT
5
F2
100
AcDbEntity
8
dimension3
6
CONTINUOUS
62
7
370
0
100
AcDbMText
10
-4.097152
20
83.7248737342
30
0
40
2
41
8.88888888889
71
5
72
1
1
18.5503
7
standard
210
0
220
0
230
1
50
90
73
2
44
1
0
LINE
5
F3
100
AcDbEntity
8
dimension3
6
CONTINUOUS
62
7
370
0
100
AcDbLine
10
8
20
74.4497474683
11
-2.147152
21
74.4497474683
0
LINE
5
F4
100
AcDbEntity
8
dimension3
6
CONTINUOUS
62
7
370
0
100
AcDbLine
10
8.7499994283
20
93
11
-2.147152
21
93
0
ENDBLK
5
67
330
65
100
AcDbEntity
8
0
100
AcDbBlockEnd
0
BLOCK
5
69
330
68
100
AcDbEntity
8
0
100
AcDbBlockBegin
2
*D6
70
1
10
0
20
0
3
*D6
1

0
LINE
5
F5
100
AcDbEntity
8
dimension
6
CONTINUOUS
62
7
370
0
100
AcDbLine
10
10
20
105.6768
11
15.75
21
105.6768
0
SOLID
5
F6
100
AcDbEntity
8
dimension
6
CONTINUOUS
62
7
370
0
100
AcDbTrace
10
10
20
105.6768
30
0
11
11
21
105.843313863
31
0
12
11
22
105.510286137
32
0
13
11
23
105.510286137
33
0
0
SOLID
5
F7
100
AcDbEntity
8
dimension
6
CONTINUOUS
62
7
370
0
100
AcDbTrace
10
15.75
20
105.6768
30
0
11
14.75
21
105.510286137
31
0
12
14.75
22
105.843313863
32
0
13
14.75
23
105.843313863
33
0
0
MTEXT
5
F8
100
AcDbEntity
8
dimension
6
CONTINUOUS
62
7
370
0
100
AcDbMText
10
12.875
20
107.6768
30
0
40
2
41
4.66666666667
71
5
72
1
1
5.75
7
standard
210
0
220
0
230
1
50
0
73
2
44
1
0
LINE
5
F9
100
AcDbEntity
8
dimension
6
CONTINUOUS
62
7
370
0
100
AcDbLine
10
10
20
92
11
10
21
105.7268
0
LINE
5
FA
100
AcDbEntity
8
dimension
6
CONTINUOUS
62
7
370
0
100
AcDbLine
10
15.75
20
90.25
11
15.75
21
105.7268
0
ENDBLK
5
6A
330
68
100
AcDbEntity
8
0
100
AcDbBlockEnd
0
BLOCK
5
6C
330
6B
100
AcDbEntity
8
0
100
AcDbBlockBegin
2
*D21
70
1
10
0
20
0
3
*D21
1

0
LINE
5
FB
100
AcDbEntity
8
dimension_holes
6
CONTINUOUS
62
7
370
0
100
AcDbLine
10
-37.2
20
10
11
-37.2
21
74.75
0
SOLID
5
FC
100
AcDbEntity
8
dimension_holes
6
CONTINUOUS
62
7
370
0
100
AcDbTrace
10
-37.2
20
10
30
0
11
-37.3665138631
21
11
31
0
12
-37.0334861369
22
11
32
0
13
-37.0334861369
23
11
33
0
0
SOLID
5
FD
100
AcDbEntity
8
dimension_holes
6
CONTINUOUS
62
7
370
0
100
AcDbTrace
10
-37.2
20
74.75
30
0
11
-37.0334861369
21
73.75
31
0
12
-37.3665138631
22
73.75
32
0
13
-37.3665138631
23
73.75
33
0
0
MTEXT
5
FE
100
AcDbEntity
8
dimension_holes
6
CONTINUOUS
62
7
370
0
100
AcDbMText
10
-39.2
20
42.375
30
0
40
2
41
6.44444444444
71
5
72
1
1
64.75
7
standard
210
0
220
0
230
1
50
90
73
2
44
1
0
LINE
5
FF
100
AcDbEntity
8
dimension_holes
6
CONTINUOUS
62
7
370
0
100
AcDbLine
10
8
20
10
11
-37.25
21
10
0
LINE
5
100
100
AcDbEntity
8
dimension_holes
6
CONTINUOUS
62
7
370
0
100
AcDbLine
10
9.75
20
74.75
11
-37.25
21
74.75
0
ENDBLK
5
6D
330
6B
100
AcDbEntity
8
0
100
AcDbBlockEnd
0
BLOCK
5
6F
330
6E
100
AcDbEntity
8
0
100
AcDbBlockBegin
2
*D12
70
1
10
0
20
0
3
*D12
1

0
LINE
5
101
100
AcDbEntity
8
dimension_holes
6
CONTINUOUS
62
7
370
0
100
AcDbLine
10
4.70298918912
20
13.75
11
4.70298918912
21
8
0
SOLID
5
102
100
AcDbEntity
8
dimension_holes
6
CONTINUOUS
62
7
370
0
100
AcDbTrace
10
4.70298918912
20
11.75
30
0
11
4.53647532601
21
12.75
31
0
12
4.86950305223
22
12.75
32
0
13
4.86950305223
23
12.75
33
0
0
SOLID
5
103
100
AcDbEntity
8
dimension_holes
6
CONTINUOUS
62
7
370
0
100
AcDbTrace
10
4.70298918912
20
10
30
0
11
4.86950305223
21
9
31
0
12
4.53647532601
22
9
32
0
13
4.53647532601
23
9
33
0
0
MTEXT
5
104
100
AcDbEntity
8
dimension_holes
6
CONTINUOUS
62
7
370
0
100
AcDbMText
10
2.70298918912
20
14.8611111111
30
0
40
2
41
4.22222222222
71
5
72
1
1
1.75
7
standard
210
0
220
0
230
1
50
90
73
2
44
1
0
LINE
5
105
100
AcDbEntity
8
dimension_holes
6
CONTINUOUS
62
7
370
0
100
AcDbLine
10
9.75
20
11.75
11
4.65298918912
21
11.75
0
LINE
5
106
100
AcDbEntity
8
dimension_holes
6
CONTINUOUS
62
7
370
0
100
AcDbLine
10
8
20
10
11
4.65298918912
21
10
0
ENDBLK
5
70
330
6E
100
AcDbEntity
8
0
100
AcDbBlockEnd
0
BLOCK
5
72
330
71
100
AcDbEntity
8
0
100
AcDbBlockBegin
2
*D14
70
1
10
0
20
0
3
*D14
1

0
LINE
5
107
100
AcDbEntity
8
dimension_holes
6
CONTINUOUS
62
7
370
0
100
AcDbLine
10
-4.9152
20
10
11
-4.9152
21
25.75
0
SOLID
5
108
100
AcDbEntity
8
dimension_holes
6
CONTINUOUS
62
7
370
0
100
AcDbTrace
10
-4.9152
20
10
30
0
11
-5.08171386311
21
11
31
0
12
-4.74868613689
22
11
32
0
13
-4.74868613689
23
11
33
0
0
SOLID
5
109
100
AcDbEntity
8
dimension_holes
6
CONTINUOUS
62
7
370
0
100
AcDbTrace
10
-4.9152
20
25.75
30
0
11
-4.74868613689
21
24.75
31
0
12
-5.08171386311
22
24.75
32
0
13
-5.08171386311
23
24.75
33
0
0
MTEXT
5
10A
100
AcDbEntity
8
dimension_holes
6
CONTINUOUS
62
7
370
0
100
AcDbMText
10
-6.9152
20
17.875
30
0
40
2
41
5.77777777778
71
5
72
1
1
15.75
7
standard
210
0
220
0
230
1
50
90
73
2
44
1
0
LINE
5
10B
100
AcDbEntity
8
dimension_holes
6
CONTINUOUS
62
7
370
0
100
AcDbLine
10
8
20
10
11
-4.9652
21
10
0
LINE
5
10C
100
AcDbEntity
8
dimension_holes
6
CONTINUOUS
62
7
370
0
100
AcDbLine
10
9.75
20
25.75
11
-4.9652
21
25.75
0
ENDBLK
5
73
330
71
100
AcDbEntity
8
0
100
AcDbBlockEnd
0
BLOCK
5
75
330
74
100
AcDbEntity
8
0
100
AcDbBlockBegin
2
*D32
70
1
10
0
20
0
3
*D32
1

0
LINE
5
10D
100
AcDbEntity
8
dimension
6
CONTINUOUS
62
7
370
0
100
AcDbLine
10
83.36
20
73
11
83.36
21
10
0
SOLID
5
10E
100
AcDbEntity
8
dimension
6
CONTINUOUS
62
7
370
0
100
AcDbTrace
10
83.36
20
73
30
0
11
83.5265138631
21
72
31
0
12
83.1934861369
22
72
32
0
13
83.1934861369
23
72
33
0
0
SOLID
5
10F
100
AcDbEntity
8
dimension
6
CONTINUOUS
62
7
370
0
100
AcDbTrace
10
83.36
20
10
30
0
11
83.1934861369
21
11
31
0
12
83.5265138631
22
11
32
0
13
83.5265138631
23
11
33
0
0
MTEXT
5
110
100
AcDbEntity
8
dimension
6
CONTINUOUS
62
7
370
0
100
AcDbMText
10
81.36
20
41.5
30
0
40
2
41
2.44444444444
71
5
72
1
1
63
7
standard
210
0
220
0
230
1
50
90
73
2
44
1
0
LINE
5
111
100
AcDbEntity
8
dimension
6
CONTINUOUS
62
7
370
0
100
AcDbLine
10
75.5
20
73
11
83.41
21
73
0
LINE
5
112
100
AcDbEntity
8
dimension
6
CONTINUOUS
62
7
370
0
100
AcDbLine
10
74.75
20
10
11
83.41
21
10
0
ENDBLK
5
76
330
74
100
AcDbEntity
8
0
100
AcDbBlockEnd
0
BLOCK
5
78
330
77
100
AcDbEntity
8
0
100
AcDbBlockBegin
2
*D17
70
1
10
0
20
0
3
*D17
1

0
LINE
5
113
100
AcDbEntity
8
dimension_holes
6
CONTINUOUS
62
7
370
0
100
AcDbLine
10
-18.5344
20
10
11
-18.5344
21
46.75
0
SOLID
5
114
100
AcDbEntity
8
dimension_holes
6
CONTINUOUS
62
7
370
0
100
AcDbTrace
10
-18.5344
20
10
30
0
11
-18.7009138631
21
11
31
0
12
-18.3678861369
22
11
32
0
13
-18.3678861369
23
11
33
0
0
SOLID
5
115
100
AcDbEntity
8
dimension_holes
6
CONTINUOUS
62
7
370
0
100
AcDbTrace
10
-18.5344
20
46.75
30
0
11
-18.3678861369
21
45.75
31
0
12
-18.7009138631
22
45.75
32
0
13
-18.7009138631
23
45.75
33
0
0
MTEXT
5
116
100
AcDbEntity
8
dimension_holes
6
CONTINUOUS
62
7
370
0
100
AcDbMText
10
-20.5344
20
28.375
30
0
40
2
41
6.22222222222
71
5
72
1
1
36.75
7
standard
210
0
220
0
230
1
50
90
73
2
44
1
0
LINE
5
117
100
AcDbEntity
8
dimension_holes
6
CONTINUOUS
62
7
370
0
100
AcDbLine
10
8
20
10
11
-18.5844
21
10
0
LINE
5
118
100
AcDbEntity
8
dimension_holes
6
CONTINUOUS
62
7
370
0
100
AcDbLine
10
9.75
20
46.75
11
-18.5844
21
46.75
0
ENDBLK
5
79
330
77
100
AcDbEntity
8
0
100
AcDbBlockEnd
0
BLOCK
5
7B
330
7A
100
AcDbEntity
8
0
100
AcDbBlockBegin
2
*D1
70
1
10
0
20
0
3
*D1
1

0
LINE
5
119
100
AcDbEntity
8
dimension
6
CONTINUOUS
62
7
370
0
100
AcDbLine
10
23.353884672
20
8
11
23.353884672
21
13.75
0
SOLID
5
11A
100
AcDbEntity
8
dimension
6
CONTINUOUS
62
7
370
0
100
AcDbTrace
10
23.353884672
20
10
30
0
11
23.5203985351
21
9
31
0
12
23.1873708089
22
9
32
0
13
23.1873708089
23
9
33
0
0
SOLID
5
11B
100
AcDbEntity
8
dimension
6
CONTINUOUS
62
7
370
0
100
AcDbTrace
10
23.353884672
20
11.75
30
0
11
23.1873708089
21
12.75
31
0
12
23.5203985351
22
12.75
32
0
13
23.5203985351
23
12.75
33
0
0
MTEXT
5
11C
100
AcDbEntity
8
dimension
6
CONTINUOUS
62
7
370
0
100
AcDbMText
10
21.353884672
20
14.8611111111
30
0
40
2
41
4.22222222222
71
5
72
1
1
1.75
7
standard
210
0
220
0
230
1
50
90
73
2
44
1
0
LINE
5
11D
100
AcDbEntity
8
dimension
6
CONTINUOUS
62
7
370
0
100
AcDbLine
10
13.75
20
10
11
23.403884672
21
10
0
LINE
5
11E
100
AcDbEntity
8
dimension
6
CONTINUOUS
62
7
370
0
100
AcDbLine
10
13.75
20
11.75
11
23.403884672
21
11.75
0
ENDBLK
5
7C
330
7A
100
AcDbEntity
8
0
100
AcDbBlockEnd
0
BLOCK
5
7E
330
7D
100
AcDbEntity
8
0
100
AcDbBlockBegin
2
*D8
70
1
10
0
20
0
3
*D8
1

0
LINE
5
11F
100
AcDbEntity
8
dimension_holes
6
CONTINUOUS
62
7
370
0
100
AcDbLine
10
15.75
20
72.66304
11
28.75
21
72.66304
0
SOLID
5
120
100
AcDbEntity
8
dimension_holes
6
CONTINUOUS
62
7
370
0
100
AcDbTrace
10
15.75
20
72.66304
30
0
11
16.75
21
72.8295538631
31
0
12
16.75
22
72.4965261369
32
0
13
16.75
23
72.4965261369
33
0
0
SOLID
5
121
100
AcDbEntity
8
dimension_holes
6
CONTINUOUS
62
7
370
0
100
AcDbTrace
10
28.75
20
72.66304
30
0
11
27.75
21
72.4965261369
31
0
12
27.75
22
72.8295538631
32
0
13
27.75
23
72.8295538631
33
0
0
MTEXT
5
122
100
AcDbEntity
8
dimension_holes
6
CONTINUOUS
62
7
370
0
100
AcDbMText
10
22.25
20
74.66304
30
0
40
2
41
2
71
5
72
1
1
13
7
standard
210
0
220
0
230
1
50
0
73
2
44
1
0
LINE
5
123
100
AcDbEntity
8
dimension_holes
6
CONTINUOUS
62
7
370
0
100
AcDbLine
10
15.75
20
86.25
11
15.75
21
72.61304
0
LINE
5
124
100
AcDbEntity
8
dimension_holes
6
CONTINUOUS
62
7
370
0
100
AcDbLine
10
28.75
20
86.25
11
28.75
21
72.61304
0
ENDBLK
5
7F
330
7D
100
AcDbEntity
8
0
100
AcDbBlockEnd
0
BLOCK
5
81
330
80
100
AcDbEntity
8
0
100
AcDbBlockBegin
2
*D36
70
1
10
0
20
0
3
*D36
1

0
LINE
5
125
100
AcDbEntity
8
dimension
6
CONTINUOUS
62
7
370
0
100
AcDbLine
10
4.46676598784
20
81.75
11
4.46676598784
21
90
0
SOLID
5
126
100
AcDbEntity
8
dimension
6
CONTINUOUS
62
7
370
0
100
AcDbTrace
10
4.46676598784
20
81.75
30
0
11
4.30025212473
21
82.75
31
0
12
4.63327985095
22
82.75
32
0
13
4.63327985095
23
82.75
33
0
0
SOLID
5
127
100
AcDbEntity
8
dimension
6
CONTINUOUS
62
7
370
0
100
AcDbTrace
10
4.46676598784
20
90
30
0
11
4.63327985095
21
89
31
0
12
4.30025212473
22
89
32
0
13
4.30025212473
23
89
33
0
0
MTEXT
5
128
100
AcDbEntity
8
dimension
6
CONTINUOUS
62
7
370
0
100
AcDbMText
10
2.46676598784
20
85.875
30
0
40
2
41
4.66666666667
71
5
72
1
1
8.25
7
standard
210
0
220
0
230
1
50
90
73
2
44
1
0
LINE
5
129
100
AcDbEntity
8
dimension
6
CONTINUOUS
62
7
370
0
100
AcDbLine
10
9.75
20
81.75
11
4.41676598784
21
81.75
0
LINE
5
12A
100
AcDbEntity
8
dimension
6
CONTINUOUS
62
7
370
0
100
AcDbLine
10
11.5
20
90
11
4.41676598784
21
90
0
ENDBLK
5
82
330
80
100
AcDbEntity
8
0
100
AcDbBlockEnd
0
BLOCK
5
84
330
83
100
AcDbEntity
8
0
100
AcDbBlockBegin
2
*D10
70
1
10
0
20
0
3
*D10
1

0
LINE
5
12B
100
AcDbEntity
8
dimension_holes
6
CONTINUOUS
62
7
370
0
100
AcDbLine
10
17.75
20
96.41984
11
11.5
21
96.41984
0
SOLID
5
12C
100
AcDbEntity
8
dimension_holes
6
CONTINUOUS
62
7
370
0
100
AcDbTrace
10
15.75
20
96.41984
30
0
11
16.75
21
96.5863538631
31
0
12
16.75
22
96.2533261369
32
0
13
16.75
23
96.2533261369
33
0
0
SOLID
5
12D
100
AcDbEntity
8
dimension_holes
6
CONTINUOUS
62
7
370
0
100
AcDbTrace
10
13.5
20
96.41984
30
0
11
12.5
21
96.2533261369
31
0
12
12.5
22
96.5863538631
32
0
13
12.5
23
96.5863538631
33
0
0
MTEXT
5
12E
100
AcDbEntity
8
dimension_holes
6
CONTINUOUS
62
7
370
0
100
AcDbMText
10
19.0833333333
20
98.41984
30
0
40
2
41
4.66666666667
71
5
72
1
1
2.25
7
standard
210
0
220
0
230
1
50
360
73
2
44
1
0
LINE
5
12F
100
AcDbEntity
8
dimension_holes
6
CONTINUOUS
62
7
370
0
100
AcDbLine
10
15.75
20
90.25
11
15.75
21
96.46984
0
LINE
5
130
100
AcDbEntity
8
dimension_holes
6
CONTINUOUS
62
7
370
0
100
AcDbLine
10
13.5
20
92
11
13.5
21
96.46984
0
ENDBLK
5
85
330
83
100
AcDbEntity
8
0
100
AcDbBlockEnd
0
BLOCK
5
87
330
86
100
AcDbEntity
8
0
100
AcDbBlockBegin
2
*D2
70
1
10
0
20
0
3
*D2
1

0
LINE
5
131
100
AcDbEntity
8
dimension
6
CONTINUOUS
62
7
370
0
100
AcDbLine
10
10
20
97.76
11
30.5
21
97.76
0
SOLID
5
132
100
AcDbEntity
8
dimension
6
CONTINUOUS
62
7
370
0
100
AcDbTrace
10
10
20
97.76
30
0
11
11
21
97.9265138631
31
0
12
11
22
97.5934861369
32
0
13
11
23
97.5934861369
33
0
0
SOLID
5
133
100
AcDbEntity
8
dimension
6
CONTINUOUS
62
7
370
0
100
AcDbTrace
10
30.5
20
97.76
30
0
11
29.5
21
97.5934861369
31
0
12
29.5
22
97.9265138631
32
0
13
29.5
23
97.9265138631
33
0
0
MTEXT
5
134
100
AcDbEntity
8
dimension
6
CONTINUOUS
62
7
370
0
100
AcDbMText
10
20.25
20
99.76
30
0
40
2
41
4.66666666667
71
5
72
1
1
20.5
7
standard
210
0
220
0
230
1
50
0
73
2
44
1
0
LINE
5
135
100
AcDbEntity
8
dimension
6
CONTINUOUS
62
7
370
0
100
AcDbLine
10
10
20
92
11
10
21
97.81
0
LINE
5
136
100
AcDbEntity
8
dimension
6
CONTINUOUS
62
7
370
0
100
AcDbLine
10
30.5
20
92
11
30.5
21
97.81
0
ENDBLK
5
88
330
86
100
AcDbEntity
8
0
100
AcDbBlockEnd
0
BLOCK
5
8A
330
89
100
AcDbEntity
8
0
100
AcDbBlockBegin
2
*D24
70
1
10
0
20
0
3
*D24
1

0
LINE
5
137
100
AcDbEntity
8
dimension3
6
CONTINUOUS
62
7
370
0
100
AcDbLine
10
13.5
20
96.16
11
25.5502525317
21
96.16
0
SOLID
5
138
100
AcDbEntity
8
dimension3
6
CONTINUOUS
62
7
370
0
100
AcDbTrace
10
13.5
20
96.16
30
0
11
14.5
21
96.3265138631
31
0
12
14.5
22
95.9934861369
32
0
13
14.5
23
95.9934861369
33
0
0
SOLID
5
139
100
AcDbEntity
8
dimension3
6
CONTINUOUS
62
7
370
0
100
AcDbTrace
10
25.5502525317
20
96.16
30
0
11
24.5502525317
21
95.9934861369
31
0
12
24.5502525317
22
96.3265138631
32
0
13
24.5502525317
23
96.3265138631
33
0
0
MTEXT
5
13A
100
AcDbEntity
8
dimension3
6
CONTINUOUS
62
7
370
0
100
AcDbMText
10
19.5251262658
20
98.16
30
0
40
2
41
8.88888888889
71
5
72
1
1
12.0503
7
standard
210
0
220
0
230
1
50
0
73
2
44
1
0
LINE
5
13B
100
AcDbEntity
8
dimension3
6
CONTINUOUS
62
7
370
0
100
AcDbLine
10
13.5
20
92
11
13.5
21
96.21
0
LINE
5
13C
100
AcDbEntity
8
dimension3
6
CONTINUOUS
62
7
370
0
100
AcDbLine
10
25.5502525317
20
92
11
25.5502525317
21
96.21
0
ENDBLK
5
8B
330
89
100
AcDbEntity
8
0
100
AcDbBlockEnd
0
BLOCK
5
8D
330
8C
100
AcDbEntity
8
0
100
AcDbBlockBegin
2
*D27
70
1
10
0
20
0
3
*D27
1

0
LINE
5
13D
100
AcDbEntity
8
dimension3
6
CONTINUOUS
62
7
370
0
100
AcDbLine
10
6.3438848
20
77.9497474683
11
6.3438848
21
93
0
SOLID
5
13E
100
AcDbEntity
8
dimension3
6
CONTINUOUS
62
7
370
0
100
AcDbTrace
10
6.3438848
20
77.9497474683
30
0
11
6.17737093689
21
78.9497474683
31
0
12
6.51039866311
22
78.9497474683
32
0
13
6.51039866311
23
78.9497474683
33
0
0
SOLID
5
13F
100
AcDbEntity
8
dimension3
6
CONTINUOUS
62
7
370
0
100
AcDbTrace
10
6.3438848
20
93
30
0
11
6.51039866311
21
92
31
0
12
6.17737093689
22
92
32
0
13
6.17737093689
23
92
33
0
0
MTEXT
5
140
100
AcDbEntity
8
dimension3
6
CONTINUOUS
62
7
370
0
100
AcDbMText
10
4.3438848
20
85.4748737342
30
0
40
2
41
8.88888888889
71
5
72
1
1
15.0503
7
standard
210
0
220
0
230
1
50
90
73
2
44
1
0
LINE
5
141
100
AcDbEntity
8
dimension3
6
CONTINUOUS
62
7
370
0
100
AcDbLine
10
11.5
20
77.9497474683
11
6.2938848
21
77.9497474683
0
LINE
5
142
100
AcDbEntity
8
dimension3
6
CONTINUOUS
62
7
370
0
100
AcDbLine
10
10.7500009537
20
93
11
6.2938848
21
93
0
ENDBLK
5
8E
330
8C
100
AcDbEntity
8
0
100
AcDbBlockEnd
0
BLOCK
5
90
330
8F
100
AcDbEntity
8
0
100
AcDbBlockBegin
2
*D15
70
1
10
0
20
0
3
*D15
1

0
LINE
5
143
100
AcDbEntity
8
dimension_holes
6
CONTINUOUS
62
7
370
0
100
AcDbLine
10
-9.3184
20
10
11
-9.3184
21
32.75
0
SOLID
5
144
100
AcDbEntity
8
dimension_holes
6
CONTINUOUS
62
7
370
0
100
AcDbTrace
10
-9.3184
20
10
30
0
11
-9.48491386311
21
11
31
0
12
-9.15188613689
22
11
32
0
13
-9.15188613689
23
11
33
0
0
SOLID
5
145
100
AcDbEntity
8
dimension_holes
6
CONTINUOUS
62
7
370
0
100
AcDbTrace
10
-9.3184
20
32.75
30
0
11
-9.15188613689
21
31.75
31
0
12
-9.48491386311
22
31.75
32
0
13
-9.48491386311
23
31.75
33
0
0
MTEXT
5
146
100
AcDbEntity
8
dimension_holes
6
CONTINUOUS
62
7
370
0
100
AcDbMText
10
-11.3184
20
21.375
30
0
40
2
41
6.22222222222
71
5
72
1
1
22.75
7
standard
210
0
220
0
230
1
50
90
73
2
44
1
0
LINE
5
147
100
AcDbEntity
8
dimension_holes
6
CONTINUOUS
62
7
370
0
100
AcDbLine
10
8
20
10
11
-9.3684
21
10
0
LINE
5
148
100
AcDbEntity
8
dimension_holes
6
CONTINUOUS
62
7
370
0
100
AcDbLine
10
9.75
20
32.75
11
-9.3684
21
32.75
0
ENDBLK
5
91
330
8F
100
AcDbEntity
8
0
100
AcDbBlockEnd
0
BLOCK
5
93
330
92
100
AcDbEntity
8
0
100
AcDbBlockBegin
2
*D13
70
1
10
0
20
0
3
*D13
1

0
LINE
5
149
100
AcDbEntity
8
dimension_holes
6
CONTINUOUS
62
7
370
0
100
AcDbLine
10
0.55834574848
20
10
11
0.55834574848
21
18.75
0
SOLID
5
14A
100
AcDbEntity
8
dimension_holes
6
CONTINUOUS
62
7
370
0
100
AcDbTrace
10
0.55834574848
20
10
30
0
11
0.391831885371
21
11
31
0
12
0.724859611589
22
11
32
0
13
0.724859611589
23
11
33
0
0
SOLID
5
14B
100
AcDbEntity
8
dimension_holes
6
CONTINUOUS
62
7
370
0
100
AcDbTrace
10
0.55834574848
20
18.75
30
0
11
0.724859611589
21
17.75
31
0
12
0.391831885371
22
17.75
32
0
13
0.391831885371
23
17.75
33
0
0
MTEXT
5
14C
100
AcDbEntity
8
dimension_holes
6
CONTINUOUS
62
7
370
0
100
AcDbMText
10
-1.44165425152
20
14.375
30
0
40
2
41
4.66666666667
71
5
72
1
1
8.75
7
standard
210
0
220
0
230
1
50
90
73
2
44
1
0
LINE
5
14D
100
AcDbEntity
8
dimension_holes
6
CONTINUOUS
62
7
370
0
100
AcDbLine
10
8
20
10
11
0.50834574848
21
10
0
LINE
5
14E
100
AcDbEntity
8
dimension_holes
6
CONTINUOUS
62
7
370
0
100
AcDbLine
10
9.75
20
18.75
11
0.50834574848
21
18.75
0
ENDBLK
5
94
330
92
100
AcDbEntity
8
0
100
AcDbBlockEnd
0
BLOCK
5
96
330
95
100
AcDbEntity
8
0
100
AcDbBlockBegin
2
*D31
70
1
10
0
20
0
3
*D31
1

0
LINE
5
14F
100
AcDbEntity
8
dimension
6
CONTINUOUS
62
7
370
0
100
AcDbLine
10
66.68288
20
90
11
66.68288
21
93
0
SOLID
5
150
100
AcDbEntity
8
dimension
6
CONTINUOUS
62
7
370
0
100
AcDbTrace
10
66.68288
20
90
30
0
11
66.5163661369
21
91
31
0
12
66.8493938631
22
91
32
0
13
66.8493938631
23
91
33
0
0
SOLID
5
151
100
AcDbEntity
8
dimension
6
CONTINUOUS
62
7
370
0
100
AcDbTrace
10
66.68288
20
93
30
0
11
66.8493938631
21
92
31
0
12
66.5163661369
22
92
32
0
13
66.5163661369
23
92
33
0
0
MTEXT
5
152
100
AcDbEntity
8
dimension
6
CONTINUOUS
62
7
370
0
100
AcDbMText
10
64.68288
20
91.5
30
0
40
2
41
0.888888888889
71
5
72
1
1
3
7
standard
210
0
220
0
230
1
50
90
73
2
44
1
0
LINE
5
153
100
AcDbEntity
8
dimension
6
CONTINUOUS
62
7
370
0
100
AcDbLine
10
68
20
90
11
66.63288
21
90
0
LINE
5
154
100
AcDbEntity
8
dimension
6
CONTINUOUS
62
7
370
0
100
AcDbLine
10
68.7500001192
20
93
11
66.63288
21
93
0
ENDBLK
5
97
330
95
100
AcDbEntity
8
0
100
AcDbBlockEnd
0
BLOCK
5
99
330
98
100
AcDbEntity
8
0
100
AcDbBlockBegin
2
*D33
70
1
10
0
20
0
3
*D33
1

0
LINE
5
155
100
AcDbEntity
8
dimension
6
CONTINUOUS
62
7
370
0
100
AcDbLine
10
64.32
20
69.5
11
64.32
21
10
0
SOLID
5
156
100
AcDbEntity
8
dimension
6
CONTINUOUS
62
7
370
0
100
AcDbTrace
10
64.32
20
69.5
30
0
11
64.4865138631
21
68.5
31
0
12
64.1534861369
22
68.5
32
0
13
64.1534861369
23
68.5
33
0
0
SOLID
5
157
100
AcDbEntity
8
dimension
6
CONTINUOUS
62
7
370
0
100
AcDbTrace
10
64.32
20
10
30
0
11
64.1534861369
21
11
31
0
12
64.4865138631
22
11
32
0
13
64.4865138631
23
11
33
0
0
MTEXT
5
158
100
AcDbEntity
8
dimension
6
CONTINUOUS
62
7
370
0
100
AcDbMText
10
62.32
20
39.75
30
0
40
2
41
4.66666666667
71
5
72
1
1
59.5
7
standard
210
0
220
0
230
1
50
90
73
2
44
1
0
LINE
5
159
100
AcDbEntity
8
dimension
6
CONTINUOUS
62
7
370
0
100
AcDbLine
10
68
20
69.5
11
64.27
21
69.5
0
LINE
5
15A
100
AcDbEntity
8
dimension
6
CONTINUOUS
62
7
370
0
100
AcDbLine
10
68
20
10
11
64.27
21
10
0
ENDBLK
5
9A
330
98
100
AcDbEntity
8
0
100
AcDbBlockEnd
0
BLOCK
5
9C
330
9B
100
AcDbEntity
8
0
100
AcDbBlockBegin
2
*D25
70
1
10
0
20
0
3
*D25
1

0
LINE
5
15B
100
AcDbEntity
8
dimension3
6
CONTINUOUS
62
7
370
0
100
AcDbLine
10
13.5
20
91.52
11
22.0502525317
21
91.52
0
SOLID
5
15C
100
AcDbEntity
8
dimension3
6
CONTINUOUS
62
7
370
0
100
AcDbTrace
10
13.5
20
91.52
30
0
11
14.5
21
91.6865138631
31
0
12
14.5
22
91.3534861369
32
0
13
14.5
23
91.3534861369
33
0
0
SOLID
5
15D
100
AcDbEntity
8
dimension3
6
CONTINUOUS
62
7
370
0
100
AcDbTrace
10
22.0502525317
20
91.52
30
0
11
21.0502525317
21
91.3534861369
31
0
12
21.0502525317
22
91.6865138631
32
0
13
21.0502525317
23
91.6865138631
33
0
0
MTEXT
5
15E
100
AcDbEntity
8
dimension3
6
CONTINUOUS
62
7
370
0
100
AcDbMText
10
17.7751262658
20
93.52
30
0
40
2
41
7.77777777778
71
5
72
1
1
8.5503
7
standard
210
0
220
0
230
1
50
0
73
2
44
1
0
LINE
5
15F
100
AcDbEntity
8
dimension3
6
CONTINUOUS
62
7
370
0
100
AcDbLine
10
13.5
20
88.5
11
13.5
21
91.57
0
LINE
5
160
100
AcDbEntity
8
dimension3
6
CONTINUOUS
62
7
370
0
100
AcDbLine
10
22.0502525317
20
88.5
11
22.0502525317
21
91.57
0
ENDBLK
5
9D
330
9B
100
AcDbEntity
8
0
100
AcDbBlockEnd
0
BLOCK
5
9F
330
9E
100
AcDbEntity
8
0
100
AcDbBlockBegin
2
*D9
70
1
10
0
20
0
3
*D9
1

0
LINE
5
161
100
AcDbEntity
8
dimension_holes
6
CONTINUOUS
62
7
370
0
100
AcDbLine
10
11.75
20
65.86368
11
28.75
21
65.86368
0
SOLID
5
162
100
AcDbEntity
8
dimension_holes
6
CONTINUOUS
62
7
370
0
100
AcDbTrace
10
11.75
20
65.86368
30
0
11
12.75
21
66.0301938631
31
0
12
12.75
22
65.6971661369
32
0
13
12.75
23
65.6971661369
33
0
0
SOLID
5
163
100
AcDbEntity
8
dimension_holes
6
CONTINUOUS
62
7
370
0
100
AcDbTrace
10
28.75
20
65.86368
30
0
11
27.75
21
65.6971661369
31
0
12
27.75
22
66.0301938631
32
0
13
27.75
23
66.0301938631
33
0
0
MTEXT
5
164
100
AcDbEntity
8
dimension_holes
6
CONTINUOUS
62
7
370
0
100
AcDbMText
10
20.25
20
67.86368
30
0
40
2
41
2
71
5
72
1
1
17
7
standard
210
0
220
0
230
1
50
0
73
2
44
1
0
LINE
5
165
100
AcDbEntity
8
dimension_holes
6
CONTINUOUS
62
7
370
0
100
AcDbLine
10
11.75
20
79.75
11
11.75
21
65.81368
0
LINE
5
166
100
AcDbEntity
8
dimension_holes
6
CONTINUOUS
62
7
370
0
100
AcDbLine
10
28.75
20
86.25
11
28.75
21
65.81368
0
ENDBLK
5
A0
330
9E
100
AcDbEntity
8
0
100
AcDbBlockEnd
0
BLOCK
5
A2
330
A1
100
AcDbEntity
8
0
100
AcDbBlockBegin
2
*D29
70
1
10
0
20
0
3
*D29
1

0
LINE
5
167
100
AcDbEntity
8
dimension
6
CONTINUOUS
62
7
370
0
100
AcDbLine
10
64.8
20
86.5
11
64.8
21
74.4497474683
0
SOLID
5
168
100
AcDbEntity
8
dimension
6
CONTINUOUS
62
7
370
0
100
AcDbTrace
10
64.8
20
86.5
30
0
11
64.9665138631
21
85.5
31
0
12
64.6334861369
22
85.5
32
0
13
64.6334861369
23
85.5
33
0
0
SOLID
5
169
100
AcDbEntity
8
dimension
6
CONTINUOUS
62
7
370
0
100
AcDbTrace
10
64.8
20
74.4497474683
30
0
11
64.6334861369
21
75.4497474683
31
0
12
64.9665138631
22
75.4497474683
32
0
13
64.9665138631
23
75.4497474683
33
0
0
MTEXT
5
16A
100
AcDbEntity
8
dimension
6
CONTINUOUS
62
7
370
0
100
AcDbMText
10
62.8
20
80.4748737342
30
0
40
2
41
8.88888888889
71
5
72
1
1
12.0503
7
standard
210
0
220
0
230
1
50
90
73
2
44
1
0
LINE
5
16B
100
AcDbEntity
8
dimension
6
CONTINUOUS
62
7
370
0
100
AcDbLine
10
68
20
86.5
11
64.75
21
86.5
0
LINE
5
16C
100
AcDbEntity
8
dimension
6
CONTINUOUS
62
7
370
0
100
AcDbLine
10
68
20
74.4497474683
11
64.75
21
74.4497474683
0
ENDBLK
5
A3
330
A1
100
AcDbEntity
8
0
100
AcDbBlockEnd
0
BLOCK
5
A5
330
A4
100
AcDbEntity
8
0
100
AcDbBlockBegin
2
*D34
70
1
10
0
20
0
3
*D34
1

0
LINE
5
16D
100
AcDbEntity
8
dimension
6
CONTINUOUS
62
7
370
0
100
AcDbLine
10
87
20
81.738596352
11
90.5
21
81.738596352
0
SOLID
5
16E
100
AcDbEntity
8
dimension
6
CONTINUOUS
62
7
370
0
100
AcDbTrace
10
87
20
81.738596352
30
0
11
88
21
81.9051102151
31
0
12
88
22
81.5720824889
32
0
13
88
23
81.5720824889
33
0
0
SOLID
5
16F
100
AcDbEntity
8
dimension
6
CONTINUOUS
62
7
370
0
100
AcDbTrace
10
90.5
20
81.738596352
30
0
11
89.5
21
81.5720824889
31
0
12
89.5
22
81.9051102151
32
0
13
89.5
23
81.9051102151
33
0
0
MTEXT
5
170
100
AcDbEntity
8
dimension
6
CONTINUOUS
62
7
370
0
100
AcDbMText
10
88.75
20
83.738596352
30
0
40
2
41
3.11111111111
71
5
72
1
1
3.5
7
standard
210
0
220
0
230
1
50
0
73
2
44
1
0
LINE
5
171
100
AcDbEntity
8
dimension
6
CONTINUOUS
62
7
370
0
100
AcDbLine
10
87
20
84.5
11
87
21
81.688596352
0
LINE
5
172
100
AcDbEntity
8
dimension
6
CONTINUOUS
62
7
370
0
100
AcDbLine
10
90.5
20
85.25
11
90.5
21
81.688596352
0
ENDBLK
5
A6
330
A4
100
AcDbEntity
8
0
100
AcDbBlockEnd
0
BLOCK
5
A8
330
A7
100
AcDbEntity
8
0
100
AcDbBlockBegin
2
*D4
70
1
10
0
20
0
3
*D4
1

0
LINE
5
173
100
AcDbEntity
8
dimension
6
CONTINUOUS
62
7
370
0
100
AcDbLine
10
31.9142135624
20
88.5857864376
11
39.8853553391
21
80.6146446609
0
LINE
5
174
100
AcDbEntity
8
dimension
6
CONTINUOUS
62
7
370
0
100
AcDbLine
10
11.4142135624
20
68.0857864376
11
19.3853553391
21
60.1146446609
0
LINE
5
175
100
AcDbEntity
8
dimension
6
CONTINUOUS
62
7
370
0
100
AcDbLine
10
39.85
20
80.65
11
19.35
21
60.15
0
SOLID
5
176
100
AcDbEntity
8
dimension
6
CONTINUOUS
62
7
370
0
100
AcDbTrace
10
39.85
20
80.65
30
0
11
39.2606363006
21
79.825150137
31
0
12
39.025150137
22
80.0606363006
32
0
13
39.025150137
23
80.0606363006
33
0
0
SOLID
5
177
100
AcDbEntity
8
dimension
6
CONTINUOUS
62
7
370
0
100
AcDbTrace
10
19.35
20
60.15
30
0
11
19.9393636994
21
60.974849863
31
0
12
20.174849863
22
60.7393636994
32
0
13
20.174849863
23
60.7393636994
33
0
0
MTEXT
5
178
100
AcDbEntity
8
dimension
6
CONTINUOUS
62
7
370
0
100
AcDbMText
10
28.1857864376
20
71.8142135624
30
0
40
2
41
9.11111111111
71
5
72
1
1
28.9914
7
standard
210
0
220
0
230
1
50
45
73
2
44
1
0
ENDBLK
5
A9
330
A7
100
AcDbEntity
8
0
100
AcDbBlockEnd
0
BLOCK
5
AB
330
AA
100
AcDbEntity
8
0
100
AcDbBlockBegin
2
*D35
70
1
10
0
20
0
3
*D35
1

0
LINE
5
179
100
AcDbEntity
8
dimension
6
CONTINUOUS
62
7
370
0
100
AcDbLine
10
73.5
20
82.49344
11
82.0502525317
21
82.49344
0
SOLID
5
17A
100
AcDbEntity
8
dimension
6
CONTINUOUS
62
7
370
0
100
AcDbTrace
10
73.5
20
82.49344
30
0
11
74.5
21
82.6599538631
31
0
12
74.5
22
82.3269261369
32
0
13
74.5
23
82.3269261369
33
0
0
SOLID
5
17B
100
AcDbEntity
8
dimension
6
CONTINUOUS
62
7
370
0
100
AcDbTrace
10
82.0502525317
20
82.49344
30
0
11
81.0502525317
21
82.3269261369
31
0
12
81.0502525317
22
82.6599538631
32
0
13
81.0502525317
23
82.6599538631
33
0
0
MTEXT
5
17C
100
AcDbEntity
8
dimension
6
CONTINUOUS
62
7
370
0
100
AcDbMText
10
77.7751262658
20
84.49344
30
0
40
2
41
7.77777777778
71
5
72
1
1
8.5503
7
standard
210
0
220
0
230
1
50
0
73
2
44
1
0
LINE
5
17D
100
AcDbEntity
8
dimension
6
CONTINUOUS
62
7
370
0
100
AcDbLine
10
73.5
20
84.5
11
73.5
21
82.44344
0
LINE
5
17E
100
AcDbEntity
8
dimension
6
CONTINUOUS
62
7
370
0
100
AcDbLine
10
82.0502525317
20
84.5
11
82.0502525317
21
82.44344
0
ENDBLK
5
AC
330
AA
100
AcDbEntity
8
0
100
AcDbBlockEnd
0
BLOCK
5
AE
330
AD
100
AcDbEntity
8
0
100
AcDbBlockBegin
2
*D18
70
1
10
0
20
0
3
*D18
1

0
LINE
5
17F
100
AcDbEntity
8
dimension_holes
6
CONTINUOUS
62
7
370
0
100
AcDbLine
10
-23.1424
20
10
11
-23.1424
21
53.75
0
SOLID
5
180
100
AcDbEntity
8
dimension_holes
6
CONTINUOUS
62
7
370
0
100
AcDbTrace
10
-23.1424
20
10
30
0
11
-23.3089138631
21
11
31
0
12
-22.9758861369
22
11
32
0
13
-22.9758861369
23
11
33
0
0
SOLID
5
181
100
AcDbEntity
8
dimension_holes
6
CONTINUOUS
62
7
370
0
100
AcDbTrace
10
-23.1424
20
53.75
30
0
11
-22.9758861369
21
52.75
31
0
12
-23.3089138631
22
52.75
32
0
13
-23.3089138631
23
52.75
33
0
0
MTEXT
5
182
100
AcDbEntity
8
dimension_holes
6
CONTINUOUS
62
7
370
0
100
AcDbMText
10
-25.1424
20
31.875
30
0
40
2
41
6.44444444444
71
5
72
1
1
43.75
7
standard
210
0
220
0
230
1
50
90
73
2
44
1
0
LINE
5
183
100
AcDbEntity
8
dimension_holes
6
CONTINUOUS
62
7
370
0
100
AcDbLine
10
8
20
10
11
-23.1924
21
10
0
LINE
5
184
100
AcDbEntity
8
dimension_holes
6
CONTINUOUS
62
7
370
0
100
AcDbLine
10
9.75
20
53.75
11
-23.1924
21
53.75
0
ENDBLK
5
AF
330
AD
100
AcDbEntity
8
0
100
AcDbBlockEnd
0
BLOCK
5
B1
330
B0
100
AcDbEntity
8
0
100
AcDbBlockBegin
2
*D20
70
1
10
0
20
0
3
*D20
1

0
LINE
5
185
100
AcDbEntity
8
dimension_holes
6
CONTINUOUS
62
7
370
0
100
AcDbLine
10
-32
20
10
11
-32
21
67.75
0
SOLID
5
186
100
AcDbEntity
8
dimension_holes
6
CONTINUOUS
62
7
370
0
100
AcDbTrace
10
-32
20
10
30
0
11
-32.1665138631
21
11
31
0
12
-31.8334861369
22
11
32
0
13
-31.8334861369
23
11
33
0
0
SOLID
5
187
100
AcDbEntity
8
dimension_holes
6
CONTINUOUS
62
7
370
0
100
AcDbTrace
10
-32
20
67.75
30
0
11
-31.8334861369
21
66.75
31
0
12
-32.1665138631
22
66.75
32
0
13
-32.1665138631
23
66.75
33
0
0
MTEXT
5
188
100
AcDbEntity
8
dimension_holes
6
CONTINUOUS
62
7
370
0
100
AcDbMText
10
-34
20
38.875
30
0
40
2
41
6.22222222222
71
5
72
1
1
57.75
7
standard
210
0
220
0
230
1
50
90
73
2
44
1
0
LINE
5
189
100
AcDbEntity
8
dimension_holes
6
CONTINUOUS
62
7
370
0
100
AcDbLine
10
8
20
10
11
-32.05
21
10
0
LINE
5
18A
100
AcDbEntity
8
dimension_holes
6
CONTINUOUS
62
7
370
0
100
AcDbLine
10
9.75
20
67.75
11
-32.05
21
67.75
0
ENDBLK
5
B2
330
B0
100
AcDbEntity
8
0
100
AcDbBlockEnd
0
BLOCK
5
B4
330
B3
100
AcDbEntity
8
0
100
AcDbBlockBegin
2
*D37
70
1
10
0
20
0
3
*D37
1

0
LINE
5
18B
100
AcDbEntity
8
dimension_holes
6
CONTINUOUS
62
7
370
0
100
AcDbLine
10
3.83111082803
20
81.75
11
3.83111082803
21
90
0
SOLID
5
18C
100
AcDbEntity
8
dimension_holes
6
CONTINUOUS
62
7
370
0
100
AcDbTrace
10
3.83111082803
20
81.75
30
0
11
3.66459696492
21
82.75
31
0
12
3.99762469114
22
82.75
32
0
13
3.99762469114
23
82.75
33
0
0
SOLID
5
18D
100
AcDbEntity
8
dimension_holes
6
CONTINUOUS
62
7
370
0
100
AcDbTrace
10
3.83111082803
20
90
30
0
11
3.99762469114
21
89
31
0
12
3.66459696492
22
89
32
0
13
3.66459696492
23
89
33
0
0
MTEXT
5
18E
100
AcDbEntity
8
dimension_holes
6
CONTINUOUS
62
7
370
0
100
AcDbMText
10
1.83111082803
20
85.875
30
0
40
2
41
4.66666666667
71
5
72
1
1
8.25
7
standard
210
0
220
0
230
1
50
90
73
2
44
1
0
LINE
5
18F
100
AcDbEntity
8
dimension_holes
6
CONTINUOUS
62
7
370
0
100
AcDbLine
10
9.75
20
81.75
11
3.78111082803
21
81.75
0
LINE
5
190
100
AcDbEntity
8
dimension_holes
6
CONTINUOUS
62
7
370
0
100
AcDbLine
10
11.5
20
90
11
3.78111082803
21
90
0
ENDBLK
5
B5
330
B3
100
AcDbEntity
8
0
100
AcDbBlockEnd
0
BLOCK
5
B7
330
B6
100
AcDbEntity
8
0
100
AcDbBlockBegin
2
*D30
70
1
10
0
20
0
3
*D30
1

0
LINE
5
191
100
AcDbEntity
8
dimension
6
CONTINUOUS
62
7
370
0
100
AcDbLine
10
96.96
20
86.5
11
96.96
21
77.9497474683
0
SOLID
5
192
100
AcDbEntity
8
dimension
6
CONTINUOUS
62
7
370
0
100
AcDbTrace
10
96.96
20
86.5
30
0
11
97.1265138631
21
85.5
31
0
12
96.7934861369
22
85.5
32
0
13
96.7934861369
23
85.5
33
0
0
SOLID
5
193
100
AcDbEntity
8
dimension
6
CONTINUOUS
62
7
370
0
100
AcDbTrace
10
96.96
20
77.9497474683
30
0
11
96.7934861369
21
78.9497474683
31
0
12
97.1265138631
22
78.9497474683
32
0
13
97.1265138631
23
78.9497474683
33
0
0
MTEXT
5
194
100
AcDbEntity
8
dimension
6
CONTINUOUS
62
7
370
0
100
AcDbMText
10
94.96
20
82.2248737342
30
0
40
2
41
7.77777777778
71
5
72
1
1
8.5503
7
standard
210
0
220
0
230
1
50
90
73
2
44
1
0
LINE
5
195
100
AcDbEntity
8
dimension
6
CONTINUOUS
62
7
370
0
100
AcDbLine
10
75.5
20
86.5
11
97.01
21
86.5
0
LINE
5
196
100
AcDbEntity
8
dimension
6
CONTINUOUS
62
7
370
0
100
AcDbLine
10
75.5
20
77.9497474683
11
97.01
21
77.9497474683
0
ENDBLK
5
B8
330
B6
100
AcDbEntity
8
0
100
AcDbBlockEnd
0
ENDSEC
0
SECTION
2
ENTITIES
0
LINE
5
197
100
AcDbEntity
8
0
6
ByLayer
62
256
370
-1
100
AcDbLine
10
10
20
10
11
10
21
90
0
CIRCLE
5
198
100
AcDbEntity
8
0
6
ByLayer
62
256
370
-1
100
AcDbCircle
10
11.75
20
11.75
40
0.75
0
CIRCLE
5
199
100
AcDbEntity
8
0
6
ByLayer
62
256
370
-1
100
AcDbCircle
10
11.75
20
18.75
40
0.75
0
CIRCLE
5
19A
100
AcDbEntity
8
0
6
ByLayer
62
256
370
-1
100
AcDbCircle
10
11.75
20
25.75
40
0.75
0
CIRCLE
5
19B
100
AcDbEntity
8
0
6
ByLayer
62
256
370
-1
100
AcDbCircle
10
11.75
20
32.75
40
0.75
0
CIRCLE
5
19C
100
AcDbEntity
8
0
6
ByLayer
62
256
370
-1
100
AcDbCircle
10
11.75
20
39.75
40
0.75
0
CIRCLE
5
19D
100
AcDbEntity
8
0
6
ByLayer
62
256
370
-1
100
AcDbCircle
10
11.75
20
46.75
40
0.75
0
CIRCLE
5
19E
100
AcDbEntity
8
0
6
ByLayer
62
256
370
-1
100
AcDbCircle
10
11.75
20
53.75
40
0.75
0
CIRCLE
5
19F
100
AcDbEntity
8
0
6
ByLayer
62
256
370
-1
100
AcDbCircle
10
11.75
20
60.75
40
0.75
0
CIRCLE
5
1A0
100
AcDbEntity
8
0
6
ByLayer
62
256
370
-1
100
AcDbCircle
10
11.75
20
67.75
40
0.75
0
CIRCLE
5
1A1
100
AcDbEntity
8
0
6
ByLayer
62
256
370
-1
100
AcDbCircle
10
11.75
20
74.75
40
0.75
0
LINE
5
1A2
100
AcDbEntity
8
0
6
ByLayer
62
256
370
-1
100
AcDbLine
10
13.5
20
90
11
13.5
21
88.25
0
CIRCLE
5
1A3
100
AcDbEntity
8
0
6
ByLayer
62
256
370
-1
100
AcDbCircle
10
15.75
20
88.25
40
0.75
0
CIRCLE
5
1A4
100
AcDbEntity
8
0
6
ByLayer
62
256
370
-1
100
AcDbCircle
10
28.75
20
88.25
40
0.75
0
LINE
5
1A5
100
AcDbEntity
8
0
6
ByLayer
62
256
370
-1
100
AcDbLine
10
15.75
20
90
11
19.75
21
90
0
LINE
5
1A6
100
AcDbEntity
8
0
6
ByLayer
62
256
370
-1
100
AcDbLine
10
13.5
20
88.25
11
13.5
21
84.75
0
LINE
5
1A7
100
AcDbEntity
8
0
6
ByLayer
62
256
370
-1
100
AcDbLine
10
10
20
90
11
10
21
10
0
LINE
5
1A8
100
AcDbEntity
8
0
6
ByLayer
62
256
370
-1
100
AcDbLine
10
25.5502525317
20
90
11
10
21
74.4497474683
0
DIMENSION
5
1A9
100
AcDbEntity
8
dimension
6
ByLayer
62
4
370
-1
100
AcDbDimension
2
*D1
10
23.353884672
20
11.75
30
0
11
21.353884672
21
10.875
31
0
70
32
71
5
3
Standard
53
0
210
0
220
0
230
1
100
AcDbAlignedDimension
13
11.75
23
10
33
0
14
11.75
24
11.75
34
0
50
90
100
AcDbRotatedDimension
0
DIMENSION
5
1AA
100
AcDbEntity
8
dimension
6
ByLayer
62
4
370
-1
100
AcDbDimension
2
*D2
10
30.5
20
97.76
30
0
11
20.25
21
99.76
31
0
70
32
71
5
3
Standard
53
0
210
0
220
0
230
1
100
AcDbAlignedDimension
13
10
23
90
33
0
14
30.5
24
90
34
0
100
AcDbRotatedDimension
0
DIMENSION
5
1AB
100
AcDbEntity
8
dimension
6
ByLayer
62
4
370
-1
100
AcDbDimension
2
*D3
10
30.5
20
90
30
0
11
22
21
92
31
0
70
32
71
5
3
Standard
53
0
210
0
220
0
230
1
100
AcDbAlignedDimension
13
13.5
23
90
33
0
14
30.5
24
90
34
0
100
AcDbRotatedDimension
0
DIMENSION
5
1AC
100
AcDbEntity
8
dimension
6
ByLayer
62
4
370
-1
100
AcDbDimension
2
*D4
10
19.35
20
60.15
30
0
11
28.1857864376
21
71.8142135624
31
0
70
33
71
5
3
Standard
53
0
210
0
220
0
230
1
100
AcDbAlignedDimension
13
30.5
23
90
33
0
14
10
24
69.5
34
0
0
DIMENSION
5
1AD
100
AcDbEntity
8
dimension
6
ByLayer
62
4
370
-1
100
AcDbDimension
2
*D5
10
24.64
20
39.75
30
0
11
22.64
21
43.25
31
0
70
32
71
5
3
Standard
53
0
210
0
220
0
230
1
100
AcDbAlignedDimension
13
11.75
23
46.75
33
0
14
11.75
24
39.75
34
0
50
90
100
AcDbRotatedDimension
0
CIRCLE
5
1AE
100
AcDbEntity
8
0
6
ByLayer
62
0
370
-1
100
AcDbCircle
10
11.75
20
81.75
40
0.75
0
DIMENSION
5
1AF
100
AcDbEntity
8
dimension
6
ByLayer
62
0
370
-1
100
AcDbDimension
2
*D6
10
15.75
20
105.6768
30
0
11
12.875
21
107.6768
31
0
70
32
71
5
3
Standard
53
0
210
0
220
0
230
1
100
AcDbAlignedDimension
13
10
23
90
33
0
14
15.75
24
88.25
34
0
100
AcDbRotatedDimension
0
DIMENSION
5
1B0
100
AcDbEntity
8
dimension
6
ByLayer
62
256
370
-1
100
AcDbDimension
2
*D7
10
10
20
21.407727616
30
0
11
8.25
21
23.407727616
31
0
70
32
71
5
3
Standard
53
0
210
0
220
0
230
1
100
AcDbAlignedDimension
13
6.5
23
18.75
33
0
14
10
24
18.75
34
0
100
AcDbRotatedDimension
0
LINE
5
1B1
100
AcDbEntity
8
dummy
6
ByLayer
62
256
370
-1
100
AcDbLine
10
30.5
20
86.5
11
29.75
21
86.5
0
LINE
5
1B2
100
AcDbEntity
8
dummy
6
ByLayer
62
256
370
-1
100
AcDbLine
10
30.5
20
90
11
29.75
21
90
0
LINE
5
1B3
100
AcDbEntity
8
dummy
6
ByLayer
62
256
370
-1
100
AcDbLine
10
29.75
20
86.5
11
29.75
21
87.25
0
LINE
5
1B4
100
AcDbEntity
8
dummy
6
ByLayer
62
256
370
-1
100
AcDbLine
10
29.75
20
90
11
29.75
21
89.25
0
LINE
5
1B5
100
AcDbEntity
8
dummy
6
ByLayer
62
256
370
-1
100
AcDbLine
10
13.5
20
93
11
13.5
21
92.25
0
LINE
5
1B6
100
AcDbEntity
8
dummy
6
ByLayer
62
256
370
-1
100
AcDbLine
10
10
20
93
11
10
21
92.25
0
LINE
5
1B7
100
AcDbEntity
8
dummy
6
ByLayer
62
256
370
-1
100
AcDbLine
10
10
20
92.25
11
10.75
21
92.25
0
LINE
5
1B8
100
AcDbEntity
8
dummy
6
ByLayer
62
256
370
-1
100
AcDbLine
10
13.5
20
92.25
11
12.75
21
92.25
0
LINE
5
1B9
100
AcDbEntity
8
dummy
6
ByLayer
62
256
370
-1
100
AcDbLine
10
13.5
20
10
11
12.75
21
10
0
LINE
5
1BA
100
AcDbEntity
8
dummy
6
ByLayer
62
256
370
-1
100
AcDbLine
10
12.75
20
10
11
12.75
21
10.75
0
LINE
5
1BB
100
AcDbEntity
8
0
6
ByLayer
62
256
370
-1
100
AcDbLine
10
13.5
20
90
11
29.7499991741
21
90
0
LINE
5
1BC
100
AcDbEntity
8
0
6
ByLayer
62
256
370
-1
100
AcDbLine
10
30.2803300859
20
89.7803300859
11
10
21
69.5
0
ARC
5
1BD
100
AcDbEntity
8
0
6
ByLayer
62
256
370
-1
100
AcDbCircle
10
29.75
20
89.25
40
0.75
100
AcDbArc
50
0
51
89.9999553854
0
LINE
5
1BE
100
AcDbEntity
8
0
6
ByLayer
62
256
370
-1
100
AcDbLine
10
30.5
20
87.25
11
30.5
21
89.25
0
LINE
5
1BF
100
AcDbEntity
8
0
6
ByLayer
62
256
370
-1
100
AcDbLine
10
29.7499991741
20
86.5
11
13.5
21
86.5
0
ARC
5
1C0
100
AcDbEntity
8
0
6
ByLayer
62
256
370
-1
100
AcDbCircle
10
29.75
20
87.25
40
0.75
100
AcDbArc
50
270.000081455
51
0
0
LINE
5
1C1
100
AcDbEntity
8
0
6
ByLayer
62
256
370
-1
100
AcDbLine
10
13.5
20
90
11
13.5
21
92.25
0
LINE
5
1C2
100
AcDbEntity
8
0
6
ByLayer
62
256
370
-1
100
AcDbLine
10
10
20
90
11
10
21
92.25
0
ARC
5
1C3
100
AcDbEntity
8
0
6
ByLayer
62
256
370
-1
100
AcDbCircle
10
10.75
20
92.25
40
0.75
100
AcDbArc
50
90.0000436752
51
180
0
LINE
5
1C4
100
AcDbEntity
8
0
6
ByLayer
62
256
370
-1
100
AcDbLine
10
10.7500001192
20
93
11
12.7499988079
21
93
0
ARC
5
1C5
100
AcDbEntity
8
0
6
ByLayer
62
256
370
-1
100
AcDbCircle
10
12.75
20
92.25
40
0.75
100
AcDbArc
50
0
51
89.9999271446
0
ARC
5
1C6
100
AcDbEntity
8
0
6
ByLayer
62
256
370
-1
100
AcDbCircle
10
12.75
20
10.75
40
0.75
100
AcDbArc
50
270
51
0
0
LINE
5
1C7
100
AcDbEntity
8
0
6
ByLayer
62
256
370
-1
100
AcDbLine
10
10
20
10
11
12.75
21
10
0
LINE
5
1C8
100
AcDbEntity
8
0
6
ByLayer
62
256
370
-1
100
AcDbLine
10
13.5
20
90
11
13.5
21
10.75
0
DIMENSION
5
1C9
100
AcDbEntity
8
dimension_holes
6
ByLayer
62
256
370
-1
100
AcDbDimension
2
*D8
10
28.75
20
72.66304
30
0
11
22.25
21
74.66304
31
0
70
32
71
5
3
Standard
53
0
210
0
220
0
230
1
100
AcDbAlignedDimension
13
15.75
23
88.25
33
0
14
28.75
24
88.25
34
0
100
AcDbRotatedDimension
0
DIMENSION
5
1CA
100
AcDbEntity
8
dimension_holes
6
ByLayer
62
256
370
-1
100
AcDbDimension
2
*D9
10
28.75
20
65.86368
30
0
11
20.25
21
67.86368
31
0
70
32
71
5
3
Standard
53
0
210
0
220
0
230
1
100
AcDbAlignedDimension
13
11.75
23
81.75
33
0
14
28.75
24
88.25
34
0
100
AcDbRotatedDimension
0
DIMENSION
5
1CB
100
AcDbEntity
8
dimension_holes
6
ByLayer
62
256
370
-1
100
AcDbDimension
2
*D10
10
13.5
20
96.41984
30
0
11
14.625
21
98.41984
31
0
70
32
71
5
3
Standard
53
0
210
0
220
0
230
1
100
AcDbAlignedDimension
13
15.75
23
88.25
33
0
14
13.5
24
90
34
0
100
AcDbRotatedDimension
0
DIMENSION
5
1CC
100
AcDbEntity
8
dimension_holes
6
ByLayer
62
256
370
-1
100
AcDbDimension
2
*D11
10
30.5
20
91.875191617
30
0
11
29.625
21
93.875191617
31
0
70
32
71
5
3
Standard
53
0
210
0
220
0
230
1
100
AcDbAlignedDimension
13
28.75
23
88.25
33
0
14
30.5
24
89.25
34
0
100
AcDbRotatedDimension
0
DIMENSION
5
1CD
100
AcDbEntity
8
dimension_holes
6
ByLayer
62
256
370
-1
100
AcDbDimension
2
*D12
10
4.70298918912
20
10
30
0
11
2.70298918912
21
10.875
31
0
70
32
71
5
3
Standard
53
0
210
0
220
0
230
1
100
AcDbAlignedDimension
13
11.75
23
11.75
33
0
14
10
24
10
34
0
50
90
100
AcDbRotatedDimension
0
DIMENSION
5
1CE
100
AcDbEntity
8
dimension_holes
6
ByLayer
62
256
370
-1
100
AcDbDimension
2
*D13
10
0.55834574848
20
18.75
30
0
11
-1.44165425152
21
14.375
31
0
70
32
71
5
3
Standard
53
0
210
0
220
0
230
1
100
AcDbAlignedDimension
13
10
23
10
33
0
14
11.75
24
18.75
34
0
50
90
100
AcDbRotatedDimension
0
DIMENSION
5
1CF
100
AcDbEntity
8
dimension_holes
6
ByLayer
62
256
370
-1
100
AcDbDimension
2
*D14
10
-4.9152
20
25.75
30
0
11
-6.9152
21
17.875
31
0
70
32
71
5
3
Standard
53
0
210
0
220
0
230
1
100
AcDbAlignedDimension
13
10
23
10
33
0
14
11.75
24
25.75
34
0
50
90
100
AcDbRotatedDimension
0
DIMENSION
5
1D0
100
AcDbEntity
8
dimension_holes
6
ByLayer
62
256
370
-1
100
AcDbDimension
2
*D15
10
-9.3184
20
32.75
30
0
11
-11.3184
21
21.375
31
0
70
32
71
5
3
Standard
53
0
210
0
220
0
230
1
100
AcDbAlignedDimension
13
10
23
10
33
0
14
11.75
24
32.75
34
0
50
90
100
AcDbRotatedDimension
0
DIMENSION
5
1D1
100
AcDbEntity
8
dimension_holes
6
ByLayer
62
256
370
-1
100
AcDbDimension
2
*D16
10
-14.2336
20
39.75
30
0
11
-16.2336
21
24.875
31
0
70
32
71
5
3
Standard
53
0
210
0
220
0
230
1
100
AcDbAlignedDimension
13
10
23
10
33
0
14
11.75
24
39.75
34
0
50
90
100
AcDbRotatedDimension
0
DIMENSION
5
1D2
100
AcDbEntity
8
dimension_holes
6
ByLayer
62
256
370
-1
100
AcDbDimension
2
*D17
10
-18.5344
20
46.75
30
0
11
-20.5344
21
28.375
31
0
70
32
71
5
3
Standard
53
0
210
0
220
0
230
1
100
AcDbAlignedDimension
13
10
23
10
33
0
14
11.75
24
46.75
34
0
50
90
100
AcDbRotatedDimension
0
DIMENSION
5
1D3
100
AcDbEntity
8
dimension_holes
6
ByLayer
62
256
370
-1
100
AcDbDimension
2
*D18
10
-23.1424
20
53.75
30
0
11
-25.1424
21
31.875
31
0
70
32
71
5
3
Standard
53
0
210
0
220
0
230
1
100
AcDbAlignedDimension
13
10
23
10
33
0
14
11.75
24
53.75
34
0
50
90
100
AcDbRotatedDimension
0
DIMENSION
5
1D4
100
AcDbEntity
8
dimension_holes
6
ByLayer
62
256
370
-1
100
AcDbDimension
2
*D19
10
-27.6
20
60.75
30
0
11
-29.6
21
35.375
31
0
70
32
71
5
3
Standard
53
0
210
0
220
0
230
1
100
AcDbAlignedDimension
13
10
23
10
33
0
14
11.75
24
60.75
34
0
50
90
100
AcDbRotatedDimension
0
DIMENSION
5
1D5
100
AcDbEntity
8
dimension_holes
6
ByLayer
62
256
370
-1
100
AcDbDimension
2
*D20
10
-32
20
67.75
30
0
11
-34
21
38.875
31
0
70
32
71
5
3
Standard
53
0
210
0
220
0
230
1
100
AcDbAlignedDimension
13
10
23
10
33
0
14
11.75
24
67.75
34
0
50
90
100
AcDbRotatedDimension
0
DIMENSION
5
1D6
100
AcDbEntity
8
dimension_holes
6
ByLayer
62
256
370
-1
100
AcDbDimension
2
*D21
10
-37.2
20
74.75
30
0
11
-39.2
21
42.375
31
0
70
32
71
5
3
Standard
53
0
210
0
220
0
230
1
100
AcDbAlignedDimension
13
10
23
10
33
0
14
11.75
24
74.75
34
0
50
90
100
AcDbRotatedDimension
0
DIMENSION
5
1D7
100
AcDbEntity
8
dimension_holes
6
ByLayer
62
256
370
-1
100
AcDbDimension
2
*D22
10
-42
20
81.75
30
0
11
-44
21
45.875
31
0
70
32
71
5
3
Standard
53
0
210
0
220
0
230
1
100
AcDbAlignedDimension
13
10
23
10
33
0
14
11.75
24
81.75
34
0
50
90
100
AcDbRotatedDimension
0
DIMENSION
5
1D8
100
AcDbEntity
8
dimension
6
ByLayer
62
256
370
-1
100
AcDbDimension
2
*D23
10
3.5527136788e-15
20
93
30
0
11
-2
21
51.5
31
0
70
32
71
5
3
Standard
53
0
210
0
220
0
230
1
100
AcDbAlignedDimension
13
10
23
10
33
0
14
10.7499994283
24
93
34
0
50
90
100
AcDbRotatedDimension
0
DIMENSION
5
1D9
100
AcDbEntity
8
dimension3
6
ByLayer
62
256
370
-1
100
AcDbDimension
2
*D24
10
25.5502525317
20
96.16
30
0
11
19.5251262658
21
98.16
31
0
70
32
71
5
3
Standard
53
0
210
0
220
0
230
1
100
AcDbAlignedDimension
13
13.5
23
90
33
0
14
25.5502525317
24
90
34
0
100
AcDbRotatedDimension
0
DIMENSION
5
1DA
100
AcDbEntity
8
dimension3
6
ByLayer
62
256
370
-1
100
AcDbDimension
2
*D25
10
22.0502525317
20
91.52
30
0
11
17.7751262658
21
93.52
31
0
70
32
71
5
3
Standard
53
0
210
0
220
0
230
1
100
AcDbAlignedDimension
13
13.5
23
86.5
33
0
14
22.0502525317
24
86.5
34
0
100
AcDbRotatedDimension
0
DIMENSION
5
1DB
100
AcDbEntity
8
dimension3
6
ByLayer
62
256
370
-1
100
AcDbDimension
2
*D26
10
-2.097152
20
93
30
0
11
-4.097152
21
83.7248737342
31
0
70
32
71
5
3
Standard
53
0
210
0
220
0
230
1
100
AcDbAlignedDimension
13
10
23
74.4497474683
33
0
14
10.7499994283
24
93
34
0
50
90
100
AcDbRotatedDimension
0
DIMENSION
5
1DC
100
AcDbEntity
8
dimension3
6
ByLayer
62
256
370
-1
100
AcDbDimension
2
*D27
10
6.3438848
20
93
30
0
11
4.3438848
21
85.4748737342
31
0
70
32
71
5
3
Standard
53
0
210
0
220
0
230
1
100
AcDbAlignedDimension
13
13.5
23
77.9497474683
33
0
14
12.7500009537
24
93
34
0
50
90
100
AcDbRotatedDimension
0
LINE
5
1DD
100
AcDbEntity
8
0
6
ByLayer
62
256
370
-1
100
AcDbLine
10
40
20
10
11
40
21
90
0
CIRCLE
5
1DE
100
AcDbEntity
8
0
6
ByLayer
62
256
370
-1
100
AcDbCircle
10
41.75
20
11.75
40
0.75
0
CIRCLE
5
1DF
100
AcDbEntity
8
0
6
ByLayer
62
256
370
-1
100
AcDbCircle
10
41.75
20
18.75
40
0.75
0
CIRCLE
5
1E0
100
AcDbEntity
8
0
6
ByLayer
62
256
370
-1
100
AcDbCircle
10
41.75
20
25.75
40
0.75
0
CIRCLE
5
1E1
100
AcDbEntity
8
0
6
ByLayer
62
256
370
-1
100
AcDbCircle
10
41.75
20
32.75
40
0.75
0
CIRCLE
5
1E2
100
AcDbEntity
8
0
6
ByLayer
62
256
370
-1
100
AcDbCircle
10
41.75
20
39.75
40
0.75
0
CIRCLE
5
1E3
100
AcDbEntity
8
0
6
ByLayer
62
256
370
-1
100
AcDbCircle
10
41.75
20
46.75
40
0.75
0
CIRCLE
5
1E4
100
AcDbEntity
8
0
6
ByLayer
62
256
370
-1
100
AcDbCircle
10
41.75
20
53.75
40
0.75
0
CIRCLE
5
1E5
100
AcDbEntity
8
0
6
ByLayer
62
256
370
-1
100
AcDbCircle
10
41.75
20
60.75
40
0.75
0
CIRCLE
5
1E6
100
AcDbEntity
8
0
6
ByLayer
62
256
370
-1
100
AcDbCircle
10
41.75
20
67.75
40
0.75
0
CIRCLE
5
1E7
100
AcDbEntity
8
0
6
ByLayer
62
256
370
-1
100
AcDbCircle
10
41.75
20
74.75
40
0.75
0
LINE
5
1E8
100
AcDbEntity
8
0
6
ByLayer
62
256
370
-1
100
AcDbLine
10
43.5
20
90
11
43.5
21
88.25
0
CIRCLE
5
1E9
100
AcDbEntity
8
0
6
ByLayer
62
256
370
-1
100
AcDbCircle
10
45.75
20
88.25
40
0.75
0
CIRCLE
5
1EA
100
AcDbEntity
8
0
6
ByLayer
62
256
370
-1
100
AcDbCircle
10
58.75
20
88.25
40
0.75
0
LINE
5
1EB
100
AcDbEntity
8
0
6
ByLayer
62
256
370
-1
100
AcDbLine
10
45.75
20
90
11
49.75
21
90
0
LINE
5
1EC
100
AcDbEntity
8
0
6
ByLayer
62
256
370
-1
100
AcDbLine
10
43.5
20
88.25
11
43.5
21
84.75
0
LINE
5
1ED
100
AcDbEntity
8
0
6
ByLayer
62
256
370
-1
100
AcDbLine
10
40
20
90
11
40
21
10
0
CIRCLE
5
1EE
100
AcDbEntity
8
0
6
ByLayer
62
0
370
-1
100
AcDbCircle
10
41.75
20
81.75
40
0.75
0
LINE
5
1EF
100
AcDbEntity
8
0
6
ByLayer
62
256
370
-1
100
AcDbLine
10
43.5
20
90
11
59.7499991741
21
90
0
ARC
5
1F0
100
AcDbEntity
8
0
6
ByLayer
62
256
370
-1
100
AcDbCircle
10
59.75
20
89.25
40
0.75
100
AcDbArc
50
0
51
89.9999553854
0
LINE
5
1F1
100
AcDbEntity
8
0
6
ByLayer
62
256
370
-1
100
AcDbLine
10
60.5
20
87.25
11
60.5
21
89.25
0
LINE
5
1F2
100
AcDbEntity
8
0
6
ByLayer
62
256
370
-1
100
AcDbLine
10
59.7499991741
20
86.5
11
43.5
21
86.5
0
ARC
5
1F3
100
AcDbEntity
8
0
6
ByLayer
62
256
370
-1
100
AcDbCircle
10
59.75
20
87.25
40
0.75
100
AcDbArc
50
270.000081455
51
0
0
LINE
5
1F4
100
AcDbEntity
8
0
6
ByLayer
62
256
370
-1
100
AcDbLine
10
43.5
20
90
11
43.5
21
92.25
0
LINE
5
1F5
100
AcDbEntity
8
0
6
ByLayer
62
256
370
-1
100
AcDbLine
10
40
20
90
11
40
21
92.25
0
ARC
5
1F6
100
AcDbEntity
8
0
6
ByLayer
62
256
370
-1
100
AcDbCircle
10
40.75
20
92.25
40
0.75
100
AcDbArc
50
90.0000436752
51
180
0
LINE
5
1F7
100
AcDbEntity
8
0
6
ByLayer
62
256
370
-1
100
AcDbLine
10
40.7500001192
20
93
11
42.7499988079
21
93
0
ARC
5
1F8
100
AcDbEntity
8
0
6
ByLayer
62
256
370
-1
100
AcDbCircle
10
42.75
20
92.25
40
0.75
100
AcDbArc
50
0
51
89.9999271446
0
ARC
5
1F9
100
AcDbEntity
8
0
6
ByLayer
62
256
370
-1
100
AcDbCircle
10
42.75
20
10.75
40
0.75
100
AcDbArc
50
270
51
0
0
LINE
5
1FA
100
AcDbEntity
8
0
6
ByLayer
62
256
370
-1
100
AcDbLine
10
40
20
10
11
42.75
21
10
0
LINE
5
1FB
100
AcDbEntity
8
0
6
ByLayer
62
256
370
-1
100
AcDbLine
10
43.5
20
90
11
43.5
21
10.75
0
LINE
5
1FC
100
AcDbEntity
8
0
6
ByLayer
62
256
370
-1
100
AcDbLine
10
85.5502525317
20
90
11
70
21
74.4497474683
0
LINE
5
1FD
100
AcDbEntity
8
0
6
ByLayer
62
256
370
-1
100
AcDbLine
10
90.2803300859
20
89.7803300859
11
70
21
69.5
0
ARC
5
1FE
100
AcDbEntity
8
0
6
ByLayer
62
256
370
-1
100
AcDbCircle
10
89.75
20
89.25
40
0.75
100
AcDbArc
50
0
51
89.9999553854
0
LINE
5
1FF
100
AcDbEntity
8
0
6
ByLayer
62
256
370
-1
100
AcDbLine
10
90.5
20
87.25
11
90.5
21
89.25
0
ARC
5
200
100
AcDbEntity
8
0
6
ByLayer
62
256
370
-1
100
AcDbCircle
10
89.75
20
87.25
40
0.75
100
AcDbArc
50
270.000081455
51
0
0
LINE
5
201
100
AcDbEntity
8
0
6
ByLayer
62
256
370
-1
100
AcDbLine
10
73.5
20
90
11
73.5
21
92.25
0
LINE
5
202
100
AcDbEntity
8
0
6
ByLayer
62
256
370
-1
100
AcDbLine
10
70
20
90
11
70
21
92.25
0
ARC
5
203
100
AcDbEntity
8
0
6
ByLayer
62
256
370
-1
100
AcDbCircle
10
70.75
20
92.25
40
0.75
100
AcDbArc
50
90.0000436752
51
180
0
LINE
5
204
100
AcDbEntity
8
0
6
ByLayer
62
256
370
-1
100
AcDbLine
10
70.7500001192
20
93
11
72.7499988079
21
93
0
ARC
5
205
100
AcDbEntity
8
0
6
ByLayer
62
256
370
-1
100
AcDbCircle
10
72.75
20
92.25
40
0.75
100
AcDbArc
50
0
51
89.9999271446
0
ARC
5
206
100
AcDbEntity
8
0
6
ByLayer
62
256
370
-1
100
AcDbCircle
10
72.75
20
10.75
40
0.75
100
AcDbArc
50
270
51
0
0
LINE
5
207
100
AcDbEntity
8
0
6
ByLayer
62
256
370
-1
100
AcDbLine
10
70
20
10
11
72.75
21
10
0
LINE
5
208
100
AcDbEntity
8
0
6
ByLayer
62
256
370
-1
100
AcDbLine
10
70
20
90
11
79.75
21
90
0
LINE
5
209
100
AcDbEntity
8
0
6
ByLayer
62
256
370
-1
100
AcDbLine
10
82.0502525317
20
86.5
11
70
21
86.5
0
LINE
5
20A
100
AcDbEntity
8
0
6
ByLayer
62
256
370
-1
100
AcDbLine
10
73.5
20
90
11
85.5502525317
21
90
0
LINE
5
20B
100
AcDbEntity
8
0
6
ByLayer
62
256
370
-1
100
AcDbLine
10
70
20
74.4497474683
11
70
21
90
0
LINE
5
20C
100
AcDbEntity
8
0
6
ByLayer
62
256
370
-1
100
AcDbLine
10
73.5
20
86.5
11
73.5
21
77.9497474683
0
LINE
5
20D
100
AcDbEntity
8
0
6
ByLayer
62
256
370
-1
100
AcDbLine
10
70
20
86.5
11
70
21
10
0
LINE
5
20E
100
AcDbEntity
8
0
6
ByLayer
62
256
370
-1
100
AcDbLine
10
85.5502525317
20
90
11
89.750000584
21
90
0
LINE
5
20F
100
AcDbEntity
8
0
6
ByLayer
62
256
370
-1
100
AcDbLine
10
73.5
20
10.75
11
73.5
21
73
0
LINE
5
210
100
AcDbEntity
8
0
6
ByLayer
62
256
370
-1
100
AcDbLine
10
89.7500010662
20
86.5
11
87
21
86.5
0
DIMENSION
5
211
100
AcDbEntity
8
dimension
6
ByLayer
62
256
370
-1
100
AcDbDimension
2
*D28
10
85.5502525317
20
96.64
30
0
11
77.7751262658
21
98.64
31
0
70
32
71
5
72
0
3
Standard
53
0
210
0
220
0
230
1
100
AcDbAlignedDimension
13
70
23
90
33
0
14
85.5502525317
24
90
34
0
100
AcDbRotatedDimension
0
DIMENSION
5
212
100
AcDbEntity
8
dimension
6
ByLayer
62
256
370
-1
100
AcDbDimension
2
*D29
10
64.8
20
74.4497474683
30
0
11
62.8
21
80.4748737342
31
0
70
32
71
5
72
0
3
Standard
53
0
210
0
220
0
230
1
100
AcDbAlignedDimension
13
70
23
86.5
33
0
14
70
24
74.4497474683
34
0
50
90
100
AcDbRotatedDimension
0
DIMENSION
5
213
100
AcDbEntity
8
dimension
6
ByLayer
62
256
370
-1
100
AcDbDimension
2
*D30
10
96.96
20
77.9497474683
30
0
11
94.96
21
82.2248737342
31
0
70
32
71
5
72
0
3
Standard
53
0
210
0
220
0
230
1
100
AcDbAlignedDimension
13
73.5
23
86.5
33
0
14
73.5
24
77.9497474683
34
0
50
90
100
AcDbRotatedDimension
0
DIMENSION
5
214
100
AcDbEntity
8
dimension
6
ByLayer
62
256
370
-1
100
AcDbDimension
2
*D31
10
66.68288
20
93
30
0
11
64.68288
21
91.5
31
0
70
32
71
5
72
0
3
Standard
53
0
210
0
220
0
230
1
100
AcDbAlignedDimension
13
70
23
90
33
0
14
70.7500001192
24
93
34
0
50
90
100
AcDbRotatedDimension
0
DIMENSION
5
215
100
AcDbEntity
8
dimension
6
ByLayer
62
256
370
-1
100
AcDbDimension
2
*D32
10
83.36
20
10
30
0
11
81.36
21
41.5
31
0
70
32
71
5
72
0
3
Standard
53
0
210
0
220
0
230
1
100
AcDbAlignedDimension
13
73.5
23
73
33
0
14
72.75
24
10
34
0
50
90
100
AcDbRotatedDimension
0
DIMENSION
5
216
100
AcDbEntity
8
dimension
6
ByLayer
62
256
370
-1
100
AcDbDimension
2
*D33
10
64.32
20
10
30
0
11
62.32
21
39.75
31
0
70
32
71
5
72
0
3
Standard
53
0
210
0
220
0
230
1
100
AcDbAlignedDimension
13
70
23
69.5
33
0
14
70
24
10
34
0
50
90
100
AcDbRotatedDimension
0
DIMENSION
5
217
100
AcDbEntity
8
dimension
6
ByLayer
62
256
370
-1
100
AcDbDimension
2
*D34
10
90.5
20
81.738596352
30
0
11
88.75
21
83.738596352
31
0
70
32
71
5
72
0
3
Standard
53
0
210
0
220
0
230
1
100
AcDbAlignedDimension
13
87
23
86.5
33
0
14
90.5
24
87.25
34
0
100
AcDbRotatedDimension
0
DIMENSION
5
218
100
AcDbEntity
8
dimension
6
ByLayer
62
256
370
-1
100
AcDbDimension
2
*D35
10
82.0502525317
20
82.49344
30
0
11
77.7751262658
21
84.49344
31
0
70
32
71
5
72
0
3
Standard
53
0
210
0
220
0
230
1
100
AcDbAlignedDimension
13
73.5
23
86.5
33
0
14
82.0502525317
24
86.5
34
0
100
AcDbRotatedDimension
0
DIMENSION
5
219
100
AcDbEntity
8
dimension
6
ByLayer
62
256
370
-1
100
AcDbDimension
2
*D36
10
4.46676598784
20
90
30
0
11
2.46676598784
21
85.875
31
0
70
32
71
5
3
Standard
53
0
210
0
220
0
230
1
100
AcDbAlignedDimension
13
11.75
23
81.75
33
0
14
13.5
24
90
34
0
50
90
100
AcDbRotatedDimension
0
DIMENSION
5
21A
100
AcDbEntity
8
dimension_holes
6
ByLayer
62
256
370
-1
100
AcDbDimension
2
*D37
10
3.83111082803
20
90
30
0
11
1.83111082803
21
85.875
31
0
70
32
71
5
3
Standard
53
0
210
0
220
0
230
1
100
AcDbAlignedDimension
13
11.75
23
81.75
33
0
14
13.5
24
90
34
0
50
90
100
AcDbRotatedDimension
0
ENDSEC
0
SECTION
2
OBJECTS
0
DICTIONARY
5
C
330
0
100
AcDbDictionary
281
1
3
ACAD_GROUP
350
D
0
DICTIONARY
5
D
330
C
100
AcDbDictionary
281
1
0
ENDSEC
0
EOF
